Вы используете незарегистрированную версию компонента "Вкладки"!

Поиск

(Free Improvisation / Avant-Garde) Martin Speicher - Erdtöne Notation des Lots - 1998, FLAC (image+.cue), lossless

Треклист:
Martin Speicher - Erdtöne Notation des Lots

Жанр: Free Improvisation / Avant-Garde
Год выпуска диска: 1998
Производитель диска: Hybrid HMP 17; Germany
Аудио кодек: FLAC
Тип рипа: image+.cue
Битрейт аудио: lossless
Продолжительность: 1:01:29
Martin Speicher: clarinet, alto and soprano saxophones
Hans Tammen: acoustic and elecric guitar
Georg Wolf: contrabass
Michael Vorfeld: percussion
1. Windsegel bewegen die Mühlsteine (Intro)
2. Polis
3. Mönch und Nonne
4. Dachrippen (Interlude 1: clarinet solo)
5. Klang der Ruinen
6. Flimmernde Fassaden und atmende Mauermembrane
7. Beschnittene Bilder und Schwellenflügel (Interlude 2: percussion solo)
8. Verlassenes Palais
9. Null-Level (Interlude 3: contrabass solo)
10. Gepflügte Steine und Scherben / Verschlüsselte Botschaft
11. Linea A und B / Gesetzestafeln / Antike Wegspuren
12. Wurzeln der Steingeschichten (Interlude 4: guitar solo)
13. Nekropolis
14. Stufen zur Unterwelt
15. Tropfende Gebeine
16. Klassisches Kreta (Coda 1)
17. Staubcoda (Coda 2)
 
EAC Report
Exact Audio Copy V0.99 prebeta 5 from 4. May 2009
EAC extraction logfile from 23. January 2010, 20:08
Martin Speicher / Erdtöne: Notation des Lots
Used drive : hp DVD-RAM GH40L Adapter: 0 ID: 1
Read mode : Secure
Utilize accurate stream : Yes
Defeat audio cache : Yes
Make use of C2 pointers : No
Read offset correction : 667
Overread into Lead-In and Lead-Out : No
Fill up missing offset samples with silence : Yes
Delete leading and trailing silent blocks : No
Null samples used in CRC calculations : Yes
Used interface : Installed external ASPI interface
Used output format : User Defined Encoder
Selected bitrate : 1024 kBit/s
Quality : High
Add ID3 tag : No
Command line compressor : C:\Program Files\Exact Audio Copy\Flac\flac.exe
Additional command line options : -6 -V -T "ARTIST=%a" -T "TITLE=%t" -T "ALBUM=%g" -T "DATE=%y" -T "TRACKNUMBER=%n" -T "GENRE=%m" -T "COMMENT=EAC FLAC -6" %s
TOC of the extracted CD
Track | Start | Length | Start sector | End sector
---------------------------------------------------------
1 | 0:00.00 | 3:27.60 | 0 | 15584
2 | 3:27.60 | 4:06.20 | 15585 | 34054
3 | 7:34.05 | 3:43.07 | 34055 | 50786
4 | 11:17.12 | 4:24.58 | 50787 | 70644
5 | 15:41.70 | 3:13.50 | 70645 | 85169
6 | 18:55.45 | 3:23.72 | 85170 | 100466
7 | 22:19.42 | 6:46.68 | 100467 | 130984
8 | 29:06.35 | 4:06.02 | 130985 | 149436
9 | 33:12.37 | 2:55.00 | 149437 | 162561
10 | 36:07.37 | 2:44.33 | 162562 | 174894
11 | 38:51.70 | 3:15.52 | 174895 | 189571
12 | 42:07.47 | 3:41.58 | 189572 | 206204
13 | 45:49.30 | 4:09.05 | 206205 | 224884
14 | 49:58.35 | 2:39.12 | 224885 | 236821
15 | 52:37.47 | 1:46.58 | 236822 | 244829
16 | 54:24.30 | 2:25.32 | 244830 | 255736
17 | 56:49.62 | 4:38.53 | 255737 | 276639
Range status and errors
Selected range
Filename C:\Users\Igor\Music\eac\Martin Speicher - Erdtöne Notation des Lots.wav
Peak level 100.0 %
Range quality 100.0 %
Test CRC 3034EABB
Copy CRC 3034EABB
Copy OK
No errors occurred
AccurateRip summary
Track 1 not present in database
Track 2 not present in database
Track 3 not present in database
Track 4 not present in database
Track 5 not present in database
Track 6 not present in database
Track 7 not present in database
Track 8 not present in database
Track 9 not present in database
Track 10 not present in database
Track 11 not present in database
Track 12 not present in database
Track 13 not present in database
Track 14 not present in database
Track 15 not present in database
Track 16 not present in database
Track 17 not present in database
None of the tracks are present in the AccurateRip database
End of status report

рип собственный
Any questions -> support@pro-jazz.com. По всем вопросам пишите -> support@pro-jazz.com
22:55
153
Нет комментариев. Ваш будет первым!