Вы используете незарегистрированную версию компонента "Вкладки"!

Поиск

(Free Improvisation, Avant-Garde Jazz, Emanem) [CD] Masashi Harada Condanction Ensemble - Enter The Continent - 2000, FLAC (tracks+.cue), lossless

(Free Improvisation, Avant-Garde Jazz, Emanem) [CD] Masashi Harada Condanction Ensemble - Enter The Continent - 2000, FLAC (tracks+.cue), lossless
Треклист:
Masashi Harada Condanction Ensemble / Enter The Continent
Жанр: Free Improvisation, Avant-Garde Jazz, Emanem
Носитель: CD
Страна-производитель диска: UK
Год издания: 2000
Издатель (лейбл): Emanem
Номер по каталогу: 4041
Страна исполнителя (группы): UK
Аудиокодек: FLAC (*.flac)
Тип рипа: tracks+.cue
Битрейт аудио: lossless
Продолжительность: 73:39
Источник (релизер): свой фирменный диск
Наличие сканов в содержимом раздачи:
Треклист:
1. Kropotkin vs Huxley 12:48
2. Voices 2:23
3. Giacinto 8:06
4. Clarity Beneath The Cloud 7:59
5. Expulsion Of The Triumphant Beast 13:26
6. The Whipping Or String Of Lava 5:55
7. Cut Off 5:11
8. Tomasic Concerto 3:10
9. Bells 14:07
 
Лог создания рипа
Exact Audio Copy V1.0 beta 3 from 29. August 2011
EAC extraction logfile from 4. October 2014, 17:05
Masashi Harada Condanction Ensemble / Enter The Continent
Used drive : PIONEER DVD-RW DVR-115D Adapter: 0 ID: 0
Read mode : Secure
Utilize accurate stream : Yes
Defeat audio cache : Yes
Make use of C2 pointers : No
Read offset correction : 48
Overread into Lead-In and Lead-Out : No
Fill up missing offset samples with silence : Yes
Delete leading and trailing silent blocks : No
Null samples used in CRC calculations : Yes
Used interface : Installed external ASPI interface
Gap handling : Appended to previous track
Used output format : User Defined Encoder
Selected bitrate : 768 kBit/s
Quality : High
Add ID3 tag : No
Command line compressor : C:\Program Files\Exact Audio Copy\Flac\flac.exe
Additional command line options : -6 -V -T "ARTIST=%artist%" -T "TITLE=%title%" -T "ALBUM=%albumtitle%" -T "DATE=%year%" -T "TRACKNUMBER=%tracknr%" -T "GENRE=%genre%" -T "COMMENT=%comment%" -T "BAND=%albuminterpret%" -T "COMPOSER=%composer%" %haslyrics%--tag-from-file=LYRICS="%lyricsfile%"%haslyrics% -T "DISCNUMBER=%cdnumber%" -T "TOTALDISCS=%totalcds%" -T "TOTALTRACKS=%numtracks%" %hascover%--picture="%coverfile%"%hascover% %source% -o %dest%
TOC of the extracted CD
Track | Start | Length | Start sector | End sector
---------------------------------------------------------
1 | 0:00.00 | 12:52.38 | 0 | 57937
2 | 12:52.38 | 2:27.64 | 57938 | 69026
3 | 15:20.27 | 8:10.73 | 69027 | 105849
4 | 23:31.25 | 8:03.74 | 105850 | 142148
5 | 31:35.24 | 13:30.00 | 142149 | 202898
6 | 45:05.24 | 5:59.50 | 202899 | 229873
7 | 51:04.74 | 5:12.07 | 229874 | 253280
8 | 56:17.06 | 3:14.56 | 253281 | 267886
9 | 59:31.62 | 14:07.43 | 267887 | 331454
Track 1
Filename D:\zzz\01 - Kropotkin vs Huxley.wav
Pre-gap length 0:00:02.00
Peak level 98.8 %
Extraction speed 5.5 X
Track quality 100.0 %
Test CRC 52D040A2
Copy CRC 52D040A2
Accurately ripped (confidence 1) [ABF5FDF8] (AR v1)
Copy OK
Track 2
Filename D:\zzz\02 - Voices.wav
Pre-gap length 0:00:04.00
Peak level 98.8 %
Extraction speed 5.3 X
Track quality 100.0 %
Test CRC 3B55BCC9
Copy CRC 3B55BCC9
Accurately ripped (confidence 1) [6538F195] (AR v1)
Copy OK
Track 3
Filename D:\zzz\03 - Giacinto.wav
Pre-gap length 0:00:04.00
Peak level 100.0 %
Extraction speed 6.6 X
Track quality 100.0 %
Test CRC 1FEE739B
Copy CRC 1FEE739B
Accurately ripped (confidence 1) [3773AA31] (AR v1)
Copy OK
Track 4
Filename D:\zzz\04 - Clarity Beneath The Cloud.wav
Pre-gap length 0:00:04.00
Peak level 99.1 %
Extraction speed 7.2 X
Track quality 100.0 %
Test CRC 73C61674
Copy CRC 73C61674
Accurately ripped (confidence 1) [F0363567] (AR v1)
Copy OK
Track 5
Filename D:\zzz\05 - Expulsion Of The Triumphant Beast.wav
Pre-gap length 0:00:04.00
Peak level 99.9 %
Extraction speed 8.2 X
Track quality 100.0 %
Test CRC ACA882C9
Copy CRC ACA882C9
Accurately ripped (confidence 1) [5E65D69D] (AR v1)
Copy OK
Track 6
Filename D:\zzz\06 - The Whipping Or String Of Lava.wav
Pre-gap length 0:00:04.00
Peak level 95.5 %
Extraction speed 8.3 X
Track quality 100.0 %
Test CRC 22248772
Copy CRC 22248772
Accurately ripped (confidence 1) [C7598F07] (AR v1)
Copy OK
Track 7
Filename D:\zzz\07 - Cut Off.wav
Pre-gap length 0:00:04.00
Peak level 100.0 %
Extraction speed 7.8 X
Track quality 99.9 %
Test CRC 453E0B37
Copy CRC 453E0B37
Accurately ripped (confidence 1) [495DA607] (AR v1)
Copy OK
Track 8
Filename D:\zzz\08 - Tomasic Concerto.wav
Pre-gap length 0:00:01.00
Peak level 100.0 %
Extraction speed 8.1 X
Track quality 100.0 %
Test CRC 07BC88C0
Copy CRC 07BC88C0
Accurately ripped (confidence 1) [31BA13B5] (AR v1)
Copy OK
Track 9
Filename D:\zzz\09 - Bells.wav
Pre-gap length 0:00:04.00
Peak level 100.0 %
Extraction speed 9.4 X
Track quality 99.9 %
Test CRC 233853EE
Copy CRC 233853EE
Accurately ripped (confidence 1) [35182343] (AR v1)
Copy OK
All tracks accurately ripped
No errors occurred
End of status report
==== Log checksum 0EE784583F3D75914B7C97C7682C50341A2C125BD82DB3C0BAFCCF90140F0B1C ====
 
Содержание индексной карты (.CUE)
REM GENRE "Free Improvisation"
REM DATE 2000
REM DISCID 8A114309
REM COMMENT "ExactAudioCopy v1.0b3"
PERFORMER "Masashi Harada Condanction Ensemble"
TITLE "Enter The Continent"
FILE "01 - Kropotkin vs Huxley.wav" WAVE
TRACK 01 AUDIO
TITLE "Kropotkin vs Huxley"
PERFORMER "Masashi Harada Condanction Ensemble"
INDEX 01 00:00:00
TRACK 02 AUDIO
TITLE "Voices"
PERFORMER "Masashi Harada Condanction Ensemble"
INDEX 00 12:48:38
FILE "02 - Voices.wav" WAVE
INDEX 01 00:00:00
TRACK 03 AUDIO
TITLE "Giacinto"
PERFORMER "Masashi Harada Condanction Ensemble"
INDEX 00 02:23:64
FILE "03 - Giacinto.wav" WAVE
INDEX 01 00:00:00
TRACK 04 AUDIO
TITLE "Clarity Beneath The Cloud"
PERFORMER "Masashi Harada Condanction Ensemble"
INDEX 00 08:06:73
FILE "04 - Clarity Beneath The Cloud.wav" WAVE
INDEX 01 00:00:00
TRACK 05 AUDIO
TITLE "Expulsion Of The Triumphant Beast"
PERFORMER "Masashi Harada Condanction Ensemble"
INDEX 00 07:59:74
FILE "05 - Expulsion Of The Triumphant Beast.wav" WAVE
INDEX 01 00:00:00
TRACK 06 AUDIO
TITLE "The Whipping Or String Of Lava"
PERFORMER "Masashi Harada Condanction Ensemble"
INDEX 00 13:26:00
FILE "06 - The Whipping Or String Of Lava.wav" WAVE
INDEX 01 00:00:00
TRACK 07 AUDIO
TITLE "Cut Off"
PERFORMER "Masashi Harada Condanction Ensemble"
INDEX 00 05:55:50
FILE "07 - Cut Off.wav" WAVE
INDEX 01 00:00:00
TRACK 08 AUDIO
TITLE "Tomasic Concerto"
PERFORMER "Masashi Harada Condanction Ensemble"
INDEX 00 05:11:07
FILE "08 - Tomasic Concerto.wav" WAVE
INDEX 01 00:00:00
TRACK 09 AUDIO
TITLE "Bells"
PERFORMER "Masashi Harada Condanction Ensemble"
INDEX 00 03:10:56
FILE "09 - Bells.wav" WAVE
INDEX 01 00:00:00
 
Лог проверки качества
d:\>d:\aucdtect -d/-m0 d:\zzz\*.wav
auCDtect: CD records authenticity detector, version 0.8.2
Copyright (c) 2004 Oleg Berngardt. All rights reserved.
Copyright (c) 2004 Alexander Djourik. All rights reserved.
------------------------------------------------------------
Processing file: [01. Kropotkin vs Huxley.wav]
------------------------------------------------------------
This track looks like CDDA with probability 100%
------------------------------------------------------------
Processing file: [02. Voices.wav]
------------------------------------------------------------
This track looks like CDDA with probability 99%
------------------------------------------------------------
Processing file: [03. Giacinto.wav]
------------------------------------------------------------
This track looks like CDDA with probability 42%
------------------------------------------------------------
Processing file: [04. Clarity Beneath The Cloud.wav]
------------------------------------------------------------
This track looks like CDDA with probability 100%
------------------------------------------------------------
Processing file: [05. Expulsion Of The Triumphant Beast.wav]
------------------------------------------------------------
This track looks like CDDA with probability 100%
------------------------------------------------------------
Processing file: [06. The Whipping Or String Of Lava.wav]
------------------------------------------------------------
This track looks like CDDA with probability 100%
------------------------------------------------------------
Processing file: [07. Cut Off.wav]
------------------------------------------------------------
This track looks like CDDA with probability 100%
------------------------------------------------------------
Processing file: [08. Tomasic Concerto.wav]
------------------------------------------------------------
This track looks like CDDA with probability 100%
------------------------------------------------------------
Processing file: [09. Bells.wav]
------------------------------------------------------------
This track looks like CDDA with probability 100%
------------------------------------------------------------
Final Conclusion:
------------------------------------------------------------
These tracks looks like CDDA with probability 100%
Доп. информация:
 
Album Info & AMG Review
All music by Masashi Harada
Digital recording by Michael Caglianone, Boston (7A West Studio), 1999, December 14
Edited, mastered and designed by Martin Davidson
Ice paintings and photographs by Masashi Harada
Liner notes: Masashi Harada (1999)
Led and "condanctioned" by "pianist-percussionist-dancer-visual artist" Mashashi Harada, this extreme sounding conglomeration will make you want to tap your feet and snap your fingers -- but only if you reside in an insane asylum. For the rest of us, these nine highly abstract tracks will either repel or attract, or simply raise some eyebrows. There is no denying the originality and quality of performance. Harada describes "condanction" as a kind of choreographic connecting of conducting, dance and improvisation. The physical movements of the condanctor (in this case, Harada) stimulate the musicians to create sounds, which in turn affect the movements of the condanctor, and so forth. The resulting aural and visual display is best perceived live, of course, but the musical results found on this disc are fascinating in themselves. The ensemble includes trumpeter Greg Kelley, soprano saxophonist Bhob Rainey, among others, in which the instrumentalists use conventional and strange sounds, as well as vocal articulation to achieve the final product, which is naturally void of melody or tonal centers.
 
Состав
Greg Kelley: trumpet
Tucker Dulin: trombone
Christian Pincock: trombone (8-9)
Eric Carlson: tuba (1-7)
Bhob Rainey: soprano saxophone
Aleta Cole: violin (1-7)
Dan Levin: cello (1-7)
Mike Bullock: double bass
Phil Tomasic: electric guitar
Masashi Harada: condanction
Voice and percussion performed by the ensemble
По всем вопросам пишите личное сообщение пользователю M0p94ok.
05:48
180
Нет комментариев. Ваш будет первым!