Вы используете незарегистрированную версию компонента "Вкладки"!

Поиск

(Avant-Garde Jazz, Free Improvisation, Psi Records) [CD] VA (Evan Parker, John Edwards, Marcio Mattos, Neil Metcalfe, John Rangecroft, Mark Sanders, Philipp Wachsmann) - Free Zone Appleby 2002 (2CD) - 2003, FLAC (tracks+.cue), lossless

(Avant-Garde Jazz, Free Improvisation, Psi Records) [CD] VA (Evan Parker, John Edwards, Marcio Mattos, Neil Metcalfe, John Rangecroft, Mark Sanders, Philipp Wachsmann) - Free Zone Appleby 2002 (2CD) - 2003, FLAC (tracks+.cue), lossless
Треклист:
VA - Free Zone Appleby 2002 (2CD)
Жанр: Avant-Garde Jazz, Free Improvisation, Psi Records
Носитель: CD
Страна-производитель диска: UK
Год издания: 2003
Издатель (лейбл): Psi Records
Номер по каталогу: psi 03.02/3
Страна исполнителя (группы): UK
Аудиокодек: FLAC (*.flac)
Тип рипа: tracks+.cue
Битрейт аудио: lossless
Продолжительность: 78:15 + 74:11
Источник (релизер): свой фирменный диск
Наличие сканов в содержимом раздачи:
Треклист:
 
CD1
1. Gong (For Phil Seamen) 0:13
2. Whitethroat 17:13
3. Re Eden 9:49
4. Subject Matters 16:27
5. Dunsany 14:02
6. Ferber String Quartet 20:09
 
CD2
1. Pin Drop 14:59
2. Sense 9:15
3. Phantoms 10:52
4. Pica Pica 7:24
5. Mgt4all 15:04
6. Morsman Octet 16:16
 
Лог создания рипа
 
CD1
Exact Audio Copy V1.0 beta 3 from 29. August 2011
EAC extraction logfile from 5. October 2014, 14:02
Various Artists / Free Zone Appleby 2002 CD1
Used drive : PIONEER DVD-RW DVR-115D Adapter: 0 ID: 0
Read mode : Secure
Utilize accurate stream : Yes
Defeat audio cache : Yes
Make use of C2 pointers : No
Read offset correction : 48
Overread into Lead-In and Lead-Out : No
Fill up missing offset samples with silence : Yes
Delete leading and trailing silent blocks : No
Null samples used in CRC calculations : Yes
Used interface : Installed external ASPI interface
Gap handling : Appended to previous track
Used output format : User Defined Encoder
Selected bitrate : 768 kBit/s
Quality : High
Add ID3 tag : No
Command line compressor : C:\Program Files\Exact Audio Copy\Flac\flac.exe
Additional command line options : -6 -V -T "ARTIST=%artist%" -T "TITLE=%title%" -T "ALBUM=%albumtitle%" -T "DATE=%year%" -T "TRACKNUMBER=%tracknr%" -T "GENRE=%genre%" -T "COMMENT=%comment%" -T "BAND=%albuminterpret%" -T "COMPOSER=%composer%" %haslyrics%--tag-from-file=LYRICS="%lyricsfile%"%haslyrics% -T "DISCNUMBER=%cdnumber%" -T "TOTALDISCS=%totalcds%" -T "TOTALTRACKS=%numtracks%" %hascover%--picture="%coverfile%"%hascover% %source% -o %dest%
TOC of the extracted CD
Track | Start | Length | Start sector | End sector
---------------------------------------------------------
1 | 0:00.00 | 0:16.62 | 0 | 1261
2 | 0:16.62 | 17:17.04 | 1262 | 79040
3 | 17:33.66 | 9:53.33 | 79041 | 123548
4 | 27:27.24 | 16:31.48 | 123549 | 197921
5 | 43:58.72 | 14:06.47 | 197922 | 261418
6 | 58:05.44 | 20:09.34 | 261419 | 352127
Track 1
Filename D:\zzz\01 - Gong (For Phil Seamen).wav
Pre-gap length 0:00:02.00
Peak level 63.6 %
Extraction speed 1.6 X
Track quality 100.0 %
Test CRC 1E8985D9
Copy CRC 1E8985D9
Accurately ripped (confidence 2) [C3B39752] (AR v1)
Copy OK
Track 2
Filename D:\zzz\02 - Whitethroat.wav
Pre-gap length 0:00:04.00
Peak level 98.8 %
Extraction speed 5.9 X
Track quality 100.0 %
Test CRC 147FC2E2
Copy CRC 147FC2E2
Accurately ripped (confidence 2) [E94250BE] (AR v1)
Copy OK
Track 3
Filename D:\zzz\03 - Re Eden.wav
Pre-gap length 0:00:04.00
Peak level 96.8 %
Extraction speed 7.0 X
Track quality 100.0 %
Test CRC 1C4C007A
Copy CRC 1C4C007A
Accurately ripped (confidence 2) [77E6CEC5] (AR v1)
Copy OK
Track 4
Filename D:\zzz\04 - Subject Matters.wav
Pre-gap length 0:00:04.00
Peak level 98.8 %
Extraction speed 7.8 X
Track quality 99.9 %
Test CRC EAA5A48D
Copy CRC EAA5A48D
Accurately ripped (confidence 2) [515E9A25] (AR v1)
Copy OK
Track 5
Filename D:\zzz\05 - Dunsany.wav
Pre-gap length 0:00:04.00
Peak level 82.6 %
Extraction speed 8.9 X
Track quality 100.0 %
Test CRC D0C0EB9A
Copy CRC D0C0EB9A
Accurately ripped (confidence 2) [A3E61AFD] (AR v1)
Copy OK
Track 6
Filename D:\zzz\06 - Ferber String Quartet.wav
Pre-gap length 0:00:04.00
Peak level 98.8 %
Extraction speed 9.7 X
Track quality 99.9 %
Test CRC BBA23A12
Copy CRC BBA23A12
Accurately ripped (confidence 2) [4ECE5894] (AR v1)
Copy OK
All tracks accurately ripped
No errors occurred
End of status report
==== Log checksum E16627A769BA3EBDAACC32B6414BE646A6AF31639C2517124BAB5712F96FE36F ====
 
CD2
Exact Audio Copy V1.0 beta 3 from 29. August 2011
EAC extraction logfile from 5. October 2014, 23:28
Various Artists / Free Zone Appleby 2002 CD2
Used drive : PIONEER DVD-RW DVR-115D Adapter: 0 ID: 0
Read mode : Secure
Utilize accurate stream : Yes
Defeat audio cache : Yes
Make use of C2 pointers : No
Read offset correction : 48
Overread into Lead-In and Lead-Out : No
Fill up missing offset samples with silence : Yes
Delete leading and trailing silent blocks : No
Null samples used in CRC calculations : Yes
Used interface : Installed external ASPI interface
Gap handling : Appended to previous track
Used output format : User Defined Encoder
Selected bitrate : 768 kBit/s
Quality : High
Add ID3 tag : No
Command line compressor : C:\Program Files\Exact Audio Copy\Flac\flac.exe
Additional command line options : -6 -V -T "ARTIST=%artist%" -T "TITLE=%title%" -T "ALBUM=%albumtitle%" -T "DATE=%year%" -T "TRACKNUMBER=%tracknr%" -T "GENRE=%genre%" -T "COMMENT=%comment%" -T "BAND=%albuminterpret%" -T "COMPOSER=%composer%" %haslyrics%--tag-from-file=LYRICS="%lyricsfile%"%haslyrics% -T "DISCNUMBER=%cdnumber%" -T "TOTALDISCS=%totalcds%" -T "TOTALTRACKS=%numtracks%" %hascover%--picture="%coverfile%"%hascover% %source% -o %dest%
TOC of the extracted CD
Track | Start | Length | Start sector | End sector
---------------------------------------------------------
1 | 0:00.00 | 15:03.01 | 0 | 67725
2 | 15:03.01 | 9:19.13 | 67726 | 109663
3 | 24:22.14 | 10:56.39 | 109664 | 158902
4 | 35:18.53 | 7:28.00 | 158903 | 192502
5 | 42:46.53 | 15:08.49 | 192503 | 260651
6 | 57:55.27 | 16:16.00 | 260652 | 333851
Track 1
Filename D:\zzz\01 - Pin Drop.wav
Pre-gap length 0:00:02.00
Peak level 98.8 %
Extraction speed 5.4 X
Track quality 99.9 %
Test CRC 85283405
Copy CRC 85283405
Accurately ripped (confidence 2) [BC05A8C8] (AR v1)
Copy OK
Track 2
Filename D:\zzz\02 - Sense.wav
Pre-gap length 0:00:04.00
Peak level 98.8 %
Extraction speed 6.5 X
Track quality 100.0 %
Test CRC 7085529A
Copy CRC 7085529A
Accurately ripped (confidence 2) [93E8B4A2] (AR v1)
Copy OK
Track 3
Filename D:\zzz\03 - Phantoms.wav
Pre-gap length 0:00:04.00
Peak level 98.8 %
Extraction speed 7.3 X
Track quality 100.0 %
Test CRC F3573FA8
Copy CRC F3573FA8
Accurately ripped (confidence 2) [5767A6E1] (AR v1)
Copy OK
Track 4
Filename D:\zzz\04 - Pica Pica.wav
Pre-gap length 0:00:04.00
Peak level 84.7 %
Extraction speed 7.7 X
Track quality 100.0 %
Test CRC 1D44B759
Copy CRC 1D44B759
Accurately ripped (confidence 2) [4943BFD8] (AR v1)
Copy OK
Track 5
Filename D:\zzz\05 - Mgt4all.wav
Pre-gap length 0:00:04.00
Peak level 98.8 %
Extraction speed 8.5 X
Track quality 99.9 %
Test CRC E4A9E6AB
Copy CRC E4A9E6AB
Accurately ripped (confidence 2) [B3C156A4] (AR v1)
Copy OK
Track 6
Filename D:\zzz\06 - Morsman Octet.wav
Pre-gap length 0:00:04.00
Peak level 98.8 %
Extraction speed 9.7 X
Track quality 100.0 %
Test CRC 6BC7B59B
Copy CRC 6BC7B59B
Accurately ripped (confidence 2) [915F6A42] (AR v1)
Copy OK
All tracks accurately ripped
No errors occurred
End of status report
==== Log checksum 43C7CCECE4C9D287477A62C21FB089831C72BA6F5F63C8A7E0499DDE7F635D1E ====
 
Содержание индексной карты (.CUE)
 
CD1
REM GENRE "Free Improvisation"
REM DATE 2003
REM DISCID 4C125706
REM COMMENT "ExactAudioCopy v1.0b3"
PERFORMER "Various Artists"
TITLE "Free Zone Appleby 2002 CD1"
FILE "01 - Gong (For Phil Seamen).wav" WAVE
TRACK 01 AUDIO
TITLE "Gong (For Phil Seamen)"
PERFORMER "Evan Parker"
INDEX 01 00:00:00
TRACK 02 AUDIO
TITLE "Whitethroat"
PERFORMER "Sylvia Hallett"
INDEX 00 00:12:62
FILE "02 - Whitethroat.wav" WAVE
INDEX 01 00:00:00
TRACK 03 AUDIO
TITLE "Re Eden"
PERFORMER "Evan Parker, John Rangecroft"
INDEX 00 17:13:04
FILE "03 - Re Eden.wav" WAVE
INDEX 01 00:00:00
TRACK 04 AUDIO
TITLE "Subject Matters"
PERFORMER "John Edwards, John Rangecroft, Mark Sanders"
INDEX 00 09:49:33
FILE "04 - Subject Matters.wav" WAVE
INDEX 01 00:00:00
TRACK 05 AUDIO
TITLE "Dunsany"
PERFORMER "Sylvia Hallett, Marcio Mattos, Neil Metcalfe, John Rangecroft"
INDEX 00 16:27:48
FILE "05 - Dunsany.wav" WAVE
INDEX 01 00:00:00
TRACK 06 AUDIO
TITLE "Ferber String Quartet"
PERFORMER "John Edwards, Sylvia Hallett, Marcio Mattos, Philipp Wachsmann"
INDEX 00 14:02:47
FILE "06 - Ferber String Quartet.wav" WAVE
INDEX 01 00:00:00
 
CD2
REM GENRE "Free Improvisation"
REM DATE 2003
REM DISCID 4E116306
REM COMMENT "ExactAudioCopy v1.0b3"
PERFORMER "Various Artists"
TITLE "Free Zone Appleby 2002 CD2"
FILE "01 - Pin Drop.wav" WAVE
TRACK 01 AUDIO
TITLE "Pin Drop"
PERFORMER "John Edwards"
INDEX 01 00:00:00
TRACK 02 AUDIO
TITLE "Sense"
PERFORMER "Neil Metcalfe, Philipp Wachsmann"
INDEX 00 14:59:01
FILE "02 - Sense.wav" WAVE
INDEX 01 00:00:00
TRACK 03 AUDIO
TITLE "Phantoms"
PERFORMER "John Edwards, Sylvia Hallett, Mark Sanders"
INDEX 00 09:15:13
FILE "03 - Phantoms.wav" WAVE
INDEX 01 00:00:00
TRACK 04 AUDIO
TITLE "Pica Pica"
PERFORMER "Sylvia Hallett, Marcio Mattos"
INDEX 00 10:52:39
FILE "04 - Pica Pica.wav" WAVE
INDEX 01 00:00:00
TRACK 05 AUDIO
TITLE "Mgt4all"
PERFORMER "Sylvia Hallett, Marcio Mattos, Neil Metcalfe, Mark Sanders"
INDEX 00 07:24:00
FILE "05 - Mgt4all.wav" WAVE
INDEX 01 00:00:00
TRACK 06 AUDIO
TITLE "Morsman Octet"
PERFORMER "John Edwards, Sylvia Hallett, Marcio Mattos, Neil Metcalfe, Evan Parker, John..."
INDEX 00 15:04:49
FILE "06 - Morsman Octet.wav" WAVE
INDEX 01 00:00:00
 
Лог проверки качества
d:\>d:\aucdtect -d/-m0 d:\zzz\*.wav
auCDtect: CD records authenticity detector, version 0.8.2
Copyright (c) 2004 Oleg Berngardt. All rights reserved.
Copyright (c) 2004 Alexander Djourik. All rights reserved.
------------------------------------------------------------
Processing file: [01. Gong (For Phil Seamen).wav]
------------------------------------------------------------
This track looks like CDDA with probability 100%
------------------------------------------------------------
Processing file: [01. Pin Drop.wav]
------------------------------------------------------------
This track looks like CDDA with probability 100%
------------------------------------------------------------
Processing file: [02. Sense.wav]
------------------------------------------------------------
This track looks like CDDA with probability 100%
------------------------------------------------------------
Processing file: [02. Whitethroat.wav]
------------------------------------------------------------
This track looks like CDDA with probability 100%
------------------------------------------------------------
Processing file: [03. Phantoms.wav]
------------------------------------------------------------
This track looks like CDDA with probability 100%
------------------------------------------------------------
Processing file: [03. Re Eden.wav]
------------------------------------------------------------
This track looks like CDDA with probability 62%
------------------------------------------------------------
Processing file: [04. Pica Pica.wav]
------------------------------------------------------------
This track looks like CDDA with probability 99%
------------------------------------------------------------
Processing file: [04. Subject Matters.wav]
------------------------------------------------------------
This track looks like CDDA with probability 100%
------------------------------------------------------------
Processing file: [05. Dunsany.wav]
------------------------------------------------------------
This track looks like CDDA with probability 43%
------------------------------------------------------------
Processing file: [05. Mgt4all.wav]
------------------------------------------------------------
This track looks like CDDA with probability 100%
------------------------------------------------------------
Processing file: [06. Ferber String Quartet.wav]
------------------------------------------------------------
This track looks like CDDA with probability 100%
------------------------------------------------------------
Processing file: [06. Morsman Octet.wav]
------------------------------------------------------------
This track looks like CDDA with probability 86%
------------------------------------------------------------
Final Conclusion:
------------------------------------------------------------
These tracks looks like CDDA with probability 100%
Доп. информация:
 
Album Info & AMG Review
(Parker) - 1.1
(Hallett) - 1.2
(Parker, Rangecroft) - 1.3
(Edwards, Rangecroft, Sanders) - 1.4
(Hallett, Mattos, Metcalfe, Rangecroft) - 1.5
(Edwards, Hallett, Mattos, Wachsmann) - 1.6
(Edwards) - 2.1
(Metcalfe, Wachsmann) - 2.2
(Edwards, Hallett, Sanders) - 2.3
(Hallett, Mattos) - 2.4
(Hallett, Mattos, Metcalfe, Sanders) - 2.5
(Edwards, Hallett, Mattos, Metcalfe, Parker, Rangecroft, Sanders, Wachsmann) - 2.6
Recorded 28 July 2002 in Ancient Space, St. Michael's Church, Appleby, England by Chris Trent
Paintings "Topography 1 (After Antrim)" front and "Topography 2 (Scree Thoughts)" back by Phil Morsman
Photographs by Caroline Forbes
Many thanks to Neil Ferber, Director of the Appleby Jazz Festival, for making the Free Zone a regular part of his programming - every musician's dream promoter.
Let's sit right down
Say how slowly the passing
Can insist upon appearing
To take
When nothing
In the form of everything
Is at stake
(Paul Haines, taken from Third World Two)
This double-CD set documents the "Free Zone" feature of the 2002 Appleby Jazz Festival. All these performances were captured live at the acoustically rich St. Michael's Church in Appleby (England). A pool of eight free improvisers, some well-known (Evan Parker, Philipp Wachsmann, Marcio Mattos, John Edwards, Mark Sanders) and others still cruelly under-recorded (Neil Metcalfe, John Rangecroft, Sylvia Hallett), spontaneously combine their skills in a series of ad hoc duets, trios, quartets, and a final octet. It is not said if the pieces are presented in the order of performance, but considering the symmetry with which each disc unfolds, one guesses that some editing and sequencing came into play to make the listening experience more pleasurable. Each CD starts with a solo performance: Hallett's captivating voice-and-violin dirge "Whitethroat" and Edwards' bass solo "Pin Drop." Then the groups gradually grow larger. With a total duration of over 150 minutes, Free Zone Appleby 2002 is a generous set, too generous for a single sitting (the sequencing of the discs as separate entities comes in handy), and highlights abound. But the two outstanding pieces are provided by the rhythm section (using the term oh so loosely) of Edwards and Sanders as they engage with Rangecroft in "Subject Matters" and Hallett in "Phantoms." They gracefully adapt their playing to these two very different musicians -- Rangecroft being a more pragmatic, intellectual player, while Hallett operates on a more atavistic or spiritual level. After such focused music, "Morsman Octet" comes as a light disappointment: the group has a hard time getting the music to flow effortlessly. But that's hardly a turnoff, only a somehow anticlimactic finale.
 
Состав
John Edwards: bass
Sylvia Hallett: violin, voice, sarangi
Marcio Mattos: cello
Neil Metcalfe: flute
Evan Parker: soprano saxophone
John Rangecroft: clarinet
Mark Sanders: percussion
Philipp Wachsmann: violin, electronics
По всем вопросам пишите личное сообщение пользователю M0p94ok.
05:49
171
Нет комментариев. Ваш будет первым!