Вы используете незарегистрированную версию компонента "Вкладки"!

Поиск

(Avant-Garde Jazz, Free Improvisation, Spool) [CD] Henry Kaiser, Paul Plimley, Danielle DeGruttola - Passwords - 1999, FLAC (tracks+.cue), lossless

(Avant-Garde Jazz, Free Improvisation, Spool) [CD] Henry Kaiser, Paul Plimley, Danielle DeGruttola - Passwords - 1999, FLAC (tracks+.cue), lossless
Треклист:
Henry Kaiser, Paul Plimley, Danielle DeGruttola / Passwords
Жанр: Avant-Garde Jazz, Free Improvisation, Spool
Носитель: CD
Страна-производитель диска: Canada
Год издания: 1999
Издатель (лейбл): Spool
Номер по каталогу: SPL103 / LINE 3
Страна исполнителя (группы): US, Canada
Аудиокодек: FLAC (*.flac)
Тип рипа: tracks+.cue
Битрейт аудио: lossless
Продолжительность: 67:32
Источник (релизер): свой фирменный диск
Наличие сканов в содержимом раздачи:
Треклист:
1. Stowaways 2:19
2. A Forgotten Secret 6:09
3. Fringes 1:39
4. Helpful Disclosures 4:24
5. Clues In Verse 4:28
6. The Secret Of The Wooden Leg 2:56
7. An Elusive Ghost 7:01
8. More Trouble 6:04
9. Locked In 4:01
10. Jigsaw In Glass 2:02
11. Locked Out 7:24
12. The Unexpected Reunion 4:27
13. The Hard Decisions 4:33
14. Dreams Come True 2:27
15. Key To A Mystery 6:59
 
Лог создания рипа
Exact Audio Copy V1.0 beta 3 from 29. August 2011
EAC extraction logfile from 7. September 2014, 13:01
Henry Kaiser, Paul Plimley, Danielle DeGruttola / Passwords
Used drive : PIONEER DVD-RW DVR-115D Adapter: 0 ID: 0
Read mode : Secure
Utilize accurate stream : Yes
Defeat audio cache : Yes
Make use of C2 pointers : No
Read offset correction : 48
Overread into Lead-In and Lead-Out : No
Fill up missing offset samples with silence : Yes
Delete leading and trailing silent blocks : No
Null samples used in CRC calculations : Yes
Used interface : Installed external ASPI interface
Gap handling : Appended to previous track
Used output format : User Defined Encoder
Selected bitrate : 768 kBit/s
Quality : High
Add ID3 tag : No
Command line compressor : C:\Program Files\Exact Audio Copy\Flac\flac.exe
Additional command line options : -6 -V -T "ARTIST=%artist%" -T "TITLE=%title%" -T "ALBUM=%albumtitle%" -T "DATE=%year%" -T "TRACKNUMBER=%tracknr%" -T "GENRE=%genre%" -T "COMMENT=%comment%" -T "BAND=%albuminterpret%" -T "COMPOSER=%composer%" %haslyrics%--tag-from-file=LYRICS="%lyricsfile%"%haslyrics% -T "DISCNUMBER=%cdnumber%" -T "TOTALDISCS=%totalcds%" -T "TOTALTRACKS=%numtracks%" %hascover%--picture="%coverfile%"%hascover% %source% -o %dest%
TOC of the extracted CD
Track | Start | Length | Start sector | End sector
---------------------------------------------------------
1 | 0:00.00 | 2:18.47 | 0 | 10396
2 | 2:18.47 | 6:12.03 | 10397 | 38299
3 | 8:30.50 | 1:41.30 | 38300 | 45904
4 | 10:12.05 | 4:26.32 | 45905 | 65886
5 | 14:38.37 | 4:28.60 | 65887 | 86046
6 | 19:07.22 | 3:00.73 | 86047 | 99619
7 | 22:08.20 | 7:05.22 | 99620 | 131516
8 | 29:13.42 | 6:05.08 | 131517 | 158899
9 | 35:18.50 | 4:02.55 | 158900 | 177104
10 | 39:21.30 | 2:06.17 | 177105 | 186571
11 | 41:27.47 | 7:30.15 | 186572 | 220336
12 | 48:57.62 | 4:30.23 | 220337 | 240609
13 | 53:28.10 | 4:35.67 | 240610 | 261301
14 | 58:04.02 | 2:29.48 | 261302 | 272524
15 | 60:33.50 | 6:58.62 | 272525 | 303936
Track 1
Filename D:\zzz\01 - Stowaways.wav
Pre-gap length 0:00:02.00
Peak level 88.7 %
Extraction speed 4.0 X
Track quality 100.0 %
Test CRC FF4099AD
Copy CRC FF4099AD
Track not present in AccurateRip database
Copy OK
Track 2
Filename D:\zzz\02 - A Forgotten Secret.wav
Peak level 99.9 %
Extraction speed 5.2 X
Track quality 100.0 %
Test CRC 62E239D8
Copy CRC 62E239D8
Track not present in AccurateRip database
Copy OK
Track 3
Filename D:\zzz\03 - Fringes.wav
Pre-gap length 0:00:02.40
Peak level 83.8 %
Extraction speed 4.5 X
Track quality 100.0 %
Test CRC 0272DEC8
Copy CRC 0272DEC8
Track not present in AccurateRip database
Copy OK
Track 4
Filename D:\zzz\04 - Helpful Disclosures.wav
Pre-gap length 0:00:02.05
Peak level 99.9 %
Extraction speed 5.7 X
Track quality 100.0 %
Test CRC E99941CE
Copy CRC E99941CE
Track not present in AccurateRip database
Copy OK
Track 5
Filename D:\zzz\05 - Clues In Verse.wav
Pre-gap length 0:00:02.02
Peak level 90.5 %
Extraction speed 6.0 X
Track quality 100.0 %
Test CRC 046349C3
Copy CRC 046349C3
Track not present in AccurateRip database
Copy OK
Track 6
Filename D:\zzz\06 - The Secret Of The Wooden Leg.wav
Pre-gap length 0:00:03.17
Peak level 70.8 %
Extraction speed 5.9 X
Track quality 100.0 %
Test CRC 1CEB06C8
Copy CRC 1CEB06C8
Track not present in AccurateRip database
Copy OK
Track 7
Filename D:\zzz\07 - An Elusive Ghost.wav
Pre-gap length 0:00:04.38
Peak level 89.0 %
Extraction speed 6.5 X
Track quality 99.9 %
Test CRC E798D84D
Copy CRC E798D84D
Track not present in AccurateRip database
Copy OK
Track 8
Filename D:\zzz\08 - More Trouble.wav
Pre-gap length 0:00:04.17
Peak level 77.9 %
Extraction speed 7.3 X
Track quality 100.0 %
Test CRC DFB1987A
Copy CRC DFB1987A
Track not present in AccurateRip database
Copy OK
Track 9
Filename D:\zzz\09 - Locked In.wav
Pre-gap length 0:00:01.18
Peak level 55.2 %
Extraction speed 7.3 X
Track quality 100.0 %
Test CRC A1D20CB8
Copy CRC A1D20CB8
Track not present in AccurateRip database
Copy OK
Track 10
Filename D:\zzz\10 - Jigsaw In Glass.wav
Pre-gap length 0:00:01.70
Peak level 74.7 %
Extraction speed 6.7 X
Track quality 100.0 %
Test CRC 4E6CC3B6
Copy CRC 4E6CC3B6
Track not present in AccurateRip database
Copy OK
Track 11
Filename D:\zzz\11 - Locked Out.wav
Pre-gap length 0:00:04.13
Peak level 54.7 %
Extraction speed 7.7 X
Track quality 99.9 %
Test CRC A9857CA9
Copy CRC A9857CA9
Track not present in AccurateRip database
Copy OK
Track 12
Filename D:\zzz\12 - The Unexpected Reunion.wav
Pre-gap length 0:00:05.32
Peak level 77.0 %
Extraction speed 8.1 X
Track quality 100.0 %
Test CRC C955DC29
Copy CRC C955DC29
Track not present in AccurateRip database
Copy OK
Track 13
Filename D:\zzz\13 - The Hard Decisions.wav
Pre-gap length 0:00:03.20
Peak level 99.7 %
Extraction speed 7.6 X
Track quality 99.9 %
Test CRC BDC47332
Copy CRC BDC47332
Track not present in AccurateRip database
Copy OK
Track 14
Filename D:\zzz\14 - Dreams Come True.wav
Pre-gap length 0:00:02.67
Peak level 42.3 %
Extraction speed 7.8 X
Track quality 100.0 %
Test CRC A595A6B6
Copy CRC A595A6B6
Track not present in AccurateRip database
Copy OK
Track 15
Filename D:\zzz\15 - Key To A Mystery.wav
Pre-gap length 0:00:02.50
Peak level 99.8 %
Extraction speed 9.2 X
Track quality 100.0 %
Test CRC A01F0E94
Copy CRC A01F0E94
Track not present in AccurateRip database
Copy OK
None of the tracks are present in the AccurateRip database
No errors occurred
End of status report
==== Log checksum 11DA6B3050836CA332C9DD10F3E6DA5A790B21C70F6BDA2DBB9461FD7660ED4B ====
 
Содержание индексной карты (.CUE)
REM GENRE "Free Improvisation"
REM DATE 1999
REM DISCID BF0FD40F
REM COMMENT "ExactAudioCopy v1.0b3"
PERFORMER "Henry Kaiser, Paul Plimley, Danielle DeGruttola"
TITLE "Passwords"
FILE "01 - Stowaways.wav" WAVE
TRACK 01 AUDIO
TITLE "Stowaways"
PERFORMER "Henry Kaiser, Paul Plimley, Danielle DeGruttola"
INDEX 01 00:00:00
FILE "02 - A Forgotten Secret.wav" WAVE
TRACK 02 AUDIO
TITLE "A Forgotten Secret"
PERFORMER "Henry Kaiser, Paul Plimley, Danielle DeGruttola"
INDEX 01 00:00:00
TRACK 03 AUDIO
TITLE "Fringes"
PERFORMER "Henry Kaiser, Paul Plimley, Danielle DeGruttola"
INDEX 00 06:09:38
FILE "03 - Fringes.wav" WAVE
INDEX 01 00:00:00
TRACK 04 AUDIO
TITLE "Helpful Disclosures"
PERFORMER "Henry Kaiser, Paul Plimley, Danielle DeGruttola"
INDEX 00 01:39:25
FILE "04 - Helpful Disclosures.wav" WAVE
INDEX 01 00:00:00
TRACK 05 AUDIO
TITLE "Clues In Verse"
PERFORMER "Henry Kaiser, Paul Plimley, Danielle DeGruttola"
INDEX 00 04:24:30
FILE "05 - Clues In Verse.wav" WAVE
INDEX 01 00:00:00
TRACK 06 AUDIO
TITLE "The Secret Of The Wooden Leg"
PERFORMER "Henry Kaiser, Paul Plimley, Danielle DeGruttola"
INDEX 00 04:25:43
FILE "06 - The Secret Of The Wooden Leg.wav" WAVE
INDEX 01 00:00:00
TRACK 07 AUDIO
TITLE "An Elusive Ghost"
PERFORMER "Henry Kaiser, Paul Plimley, Danielle DeGruttola"
INDEX 00 02:56:35
FILE "07 - An Elusive Ghost.wav" WAVE
INDEX 01 00:00:00
TRACK 08 AUDIO
TITLE "More Trouble"
PERFORMER "Henry Kaiser, Paul Plimley, Danielle DeGruttola"
INDEX 00 07:01:05
FILE "08 - More Trouble.wav" WAVE
INDEX 01 00:00:00
TRACK 09 AUDIO
TITLE "Locked In"
PERFORMER "Henry Kaiser, Paul Plimley, Danielle DeGruttola"
INDEX 00 06:03:65
FILE "09 - Locked In.wav" WAVE
INDEX 01 00:00:00
TRACK 10 AUDIO
TITLE "Jigsaw In Glass"
PERFORMER "Henry Kaiser, Paul Plimley, Danielle DeGruttola"
INDEX 00 04:00:60
FILE "10 - Jigsaw In Glass.wav" WAVE
INDEX 01 00:00:00
TRACK 11 AUDIO
TITLE "Locked Out"
PERFORMER "Henry Kaiser, Paul Plimley, Danielle DeGruttola"
INDEX 00 02:02:04
FILE "11 - Locked Out.wav" WAVE
INDEX 01 00:00:00
TRACK 12 AUDIO
TITLE "The Unexpected Reunion"
PERFORMER "Henry Kaiser, Paul Plimley, Danielle DeGruttola"
INDEX 00 07:24:58
FILE "12 - The Unexpected Reunion.wav" WAVE
INDEX 01 00:00:00
TRACK 13 AUDIO
TITLE "The Hard Decisions"
PERFORMER "Henry Kaiser, Paul Plimley, Danielle DeGruttola"
INDEX 00 04:27:03
FILE "13 - The Hard Decisions.wav" WAVE
INDEX 01 00:00:00
TRACK 14 AUDIO
TITLE "Dreams Come True"
PERFORMER "Henry Kaiser, Paul Plimley, Danielle DeGruttola"
INDEX 00 04:33:00
FILE "14 - Dreams Come True.wav" WAVE
INDEX 01 00:00:00
TRACK 15 AUDIO
TITLE "Key To A Mystery"
PERFORMER "Henry Kaiser, Paul Plimley, Danielle DeGruttola"
INDEX 00 02:26:73
FILE "15 - Key To A Mystery.wav" WAVE
INDEX 01 00:00:00
 
Лог проверки качества
d:\>d:\aucdtect -d/-m0 d:\zzz\*.wav
auCDtect: CD records authenticity detector, version 0.8.2
Copyright (c) 2004 Oleg Berngardt. All rights reserved.
Copyright (c) 2004 Alexander Djourik. All rights reserved.
------------------------------------------------------------
Processing file: [01. Stowaways.wav]
------------------------------------------------------------
This track looks like CDDA with probability 100%
------------------------------------------------------------
Processing file: [02. A Forgotten Secret.wav]
------------------------------------------------------------
This track looks like CDDA with probability 87%
------------------------------------------------------------
Processing file: [03. Fringes.wav]
------------------------------------------------------------
This track looks like CDDA with probability 54%
------------------------------------------------------------
Processing file: [04. Helpful Disclosures.wav]
------------------------------------------------------------
This track looks like CDDA with probability 100%
------------------------------------------------------------
Processing file: [05. Clues In Verse.wav]
------------------------------------------------------------
This track looks like CDDA with probability 100%
------------------------------------------------------------
Processing file: [06. The Secret Of The Wooden Leg.wav]
------------------------------------------------------------
This track looks like CDDA with probability 100%
------------------------------------------------------------
Processing file: [07. An Elusive Ghost.wav]
------------------------------------------------------------
This track looks like CDDA with probability 54%
------------------------------------------------------------
Processing file: [08. More Trouble.wav]
------------------------------------------------------------
This track looks like CDDA with probability 100%
------------------------------------------------------------
Processing file: [09. Locked In.wav]
------------------------------------------------------------
This track looks like CDDA with probability 100%
------------------------------------------------------------
Processing file: [10. Jigsaw In Glass.wav]
------------------------------------------------------------
This track looks like CDDA with probability 100%
------------------------------------------------------------
Processing file: [11. Locked Out.wav]
------------------------------------------------------------
This track looks like CDDA with probability 99%
------------------------------------------------------------
Processing file: [12. The Unexpected Reunion.wav]
------------------------------------------------------------
This track looks like CDDA with probability 100%
------------------------------------------------------------
Processing file: [13. The Hard Decisions.wav]
------------------------------------------------------------
This track looks like CDDA with probability 99%
------------------------------------------------------------
Processing file: [14. Dreams Come True.wav]
------------------------------------------------------------
This track looks like CDDA with probability 100%
------------------------------------------------------------
Processing file: [15. Key To A Mystery.wav]
------------------------------------------------------------
This track looks like CDDA with probability 100%
------------------------------------------------------------
Final Conclusion:
------------------------------------------------------------
These tracks looks like CDDA with probability 100%
Доп. информация:
 
Album Info & AMG Review
Tracks 1,5,7,11,13 composed by Kaiser & Plimley.
Tracks 2,4,6,8,10,12,15 composed by Kaiser, Plimley and DeGruttola
Track 3 composed by Plimley & DeGruttola
Track 14 composed by Kaiser & DeGruttola
Recorded by Michael Cogan at Bay Records, Berkeley, CA in October '96 and November '97
Mastered by David Gans 21 November '97 for Truth and Fun Inc., Oakland, CA
Cover concept: Paul Plimley
Graphic design and layout: Amy Heggie
Cover photography and graphic elements: Ashley Maile
For your listening pleasure, Paul Plimley recommends programming your CD player to play: 1,13,3,4,5,6,7,8,9,10,11,12,2,14,15. Happy listening.
This meeting of the minds was a long time in coming. Guitarist Henry Kaiser and Canadian piano god Paul Plimley are enough of a treat, but add cellist Danielle DeGruttola to the improvisation pool and you have width, depth, and considerable dimension. The music presented on Passwords is far from any recognizable niche in the free improv world. There are no presuppositions, no signals, no preliminary discussions: just music as it presents itself to be played by, and heard through, the hands and ears of the improvisers. Kaiser is remarkably restrained in these proceedings -- though he does manage a few screaming wah-wah freak-outs in "Helpful Disclosures" and "The Hard Decisions" -- and Plimley guides the pair of string players through knotty and unfamiliar terrain by relying on harmonic instinct rather than the ethereal thing itself. Each phrase is fed and commented upon in a staggered manner, where DeGruttola decides not so much what to play, but how it should be played; and Kaiser invents new textures and colors on the spot to further widen the gap between music-making and music-making. The act of tonal and timbral construction is an art pursuant only to itself here; where guitar strings rattle as much as they sing, and piano keys feel pulled instead of pushed as a pizzicato cello solo goes haywire and needs an angular blues run from either player to rectify its straying, wandering nature. All of the notes here have personalities; all of them are establishing identities in relation not only to the instrumentalists who receive them, but to the player who executes them as well. It's a hell of a hide-and-seek game, with occasional forays into communal freak-out. Any sound can and does have a place: just the location and timing matter. What a breath of fresh air this set is. Kaiser, Plimley, and DeGruttola should hang out together more often; we all benefit greatly when they do.
 
Состав
Henry Kaiser: guitar & bass guitar
Paul Plimley: Yamaha grand piano
Danielle DeGruttola: cello (2,3,4,6,8,10,12,14,15)
По всем вопросам пишите личное сообщение пользователю M0p94ok.
05:47
210
Нет комментариев. Ваш будет первым!