Вы используете незарегистрированную версию компонента "Вкладки"!

Поиск

(Free Jazz) [CD] Oliver Lake (Reggie Workman, Pheeroan ak Laff, John Hicks) - Again And Again {Gramavision R2 79468, USA} - 1991, FLAC (tracks+.cue), lossless

(Free Jazz) [CD] Oliver Lake (Reggie Workman, Pheeroan ak Laff, John Hicks) - Again And Again {Gramavision R2 79468, USA} - 1991, FLAC (tracks+.cue), lossless
Треклист:
Oliver Lake / Again And Again
Жанр: Free Jazz
Носитель: CD
Страна-производитель диска: USA
Год издания: 1991
Издатель (лейбл): Gramavision
Номер по каталогу: R2 79468
Страна исполнителя (группы): USA
Аудиокодек: FLAC (*.flac)
Тип рипа: tracks+.cue
Битрейт аудио: lossless
Продолжительность: 00:53:44
Источник (релизер): вата
Наличие сканов в содержимом раздачи: front + back
Треклист:
1. Again And Again 7:15
2. Anyway 7:17
3. Cross River 4:13
4. Touch 8:27
5. Aztec 6:00
6. Mask 8:04
7. Re-cre-ate 4:25
8. M.I.L.D. 7:15
Доп. информация:
Album Info
Produced by: Oliver Lake
Executive Producer: Jonathan F.P. Rose
Recorded at Clinton Recording Studio, NYC, April 1991
Recorded direct to 2 track, Dolby SR
Mastered at Masterdisk, NYC, June 1991.
Personnel:
Oliver Lake - alto sax, soprano sax
John Hicks - piano
Reggie Workman - bass
Pheeroan ak Laff - drums
 
Лог создания рипа (EAC Log)
Exact Audio Copy V0.99 prebeta 3 from 28. July 2007
EAC extraction logfile from 18. September 2008, 15:28
Oliver Lake / Again And Again
Used drive : PIONEER DVD-RW DVR-111D Adapter: 0 ID: 0
Read mode : Secure
Utilize accurate stream : Yes
Defeat audio cache : Yes
Make use of C2 pointers : No
Read offset correction : 48
Overread into Lead-In and Lead-Out : No
Fill up missing offset samples with silence : Yes
Delete leading and trailing silent blocks : No
Null samples used in CRC calculations : Yes
Used interface : Installed external ASPI interface
Gap handling : Appended to previous track
Used output format : Internal WAV Routines
Sample format : 44.100 Hz; 16 Bit; Stereo
TOC of the extracted CD
Track | Start | Length | Start sector | End sector
---------------------------------------------------------
1 | 0:00.50 | 7:18.12 | 50 | 32911
2 | 7:18.62 | 7:20.08 | 32912 | 65919
3 | 14:38.70 | 4:18.62 | 65920 | 85331
4 | 18:57.57 | 8:30.45 | 85332 | 123626
5 | 27:28.27 | 6:01.25 | 123627 | 150726
6 | 33:29.52 | 8:02.65 | 150727 | 186941
7 | 41:32.42 | 4:24.53 | 186942 | 206794
8 | 45:57.20 | 7:48.10 | 206795 | 241904
Track 1
Filename C:\Documents and Settings\frank\My Documents\0 NYP\000 BACK TO FLACs\LAKE Oliver\Again and Again\01 Again And Again.wav
Pre-gap length 0:00:02.50
Peak level 70.2 %
Track quality 100.0 %
Copy CRC 0F6AAAAA
Copy OK
Track 2
Filename C:\Documents and Settings\frank\My Documents\0 NYP\000 BACK TO FLACs\LAKE Oliver\Again and Again\02 Anyway.wav
Pre-gap length 0:00:02.62
Peak level 85.7 %
Track quality 100.0 %
Copy CRC 5C18D731
Copy OK
Track 3
Filename C:\Documents and Settings\frank\My Documents\0 NYP\000 BACK TO FLACs\LAKE Oliver\Again and Again\03 Cross River.wav
Pre-gap length 0:00:01.45
Peak level 97.2 %
Track quality 100.0 %
Copy CRC 1E03512E
Copy OK
Track 4
Filename C:\Documents and Settings\frank\My Documents\0 NYP\000 BACK TO FLACs\LAKE Oliver\Again and Again\04 Touch.wav
Peak level 88.3 %
Track quality 100.0 %
Copy CRC E9EE61B9
Copy OK
Track 5
Filename C:\Documents and Settings\frank\My Documents\0 NYP\000 BACK TO FLACs\LAKE Oliver\Again and Again\05 Aztec.wav
Pre-gap length 0:00:02.12
Peak level 97.3 %
Track quality 100.0 %
Copy CRC 1ADD9DA3
Copy OK
Track 6
Filename C:\Documents and Settings\frank\My Documents\0 NYP\000 BACK TO FLACs\LAKE Oliver\Again and Again\06 Mask.wav
Peak level 48.2 %
Track quality 100.0 %
Copy CRC 8A91887E
Copy OK
Track 7
Filename C:\Documents and Settings\frank\My Documents\0 NYP\000 BACK TO FLACs\LAKE Oliver\Again and Again\07 Re-cre-ate.wav
Peak level 97.3 %
Track quality 100.0 %
Copy CRC 188B1022
Copy OK
Track 8
Filename C:\Documents and Settings\frank\My Documents\0 NYP\000 BACK TO FLACs\LAKE Oliver\Again and Again\08 M.I.L.D..wav
Peak level 91.7 %
Track quality 100.0 %
Copy CRC 1E28BF08
Copy OK
No errors occurred
End of status report
 
Содержание индексной карты (.CUE)
REM DISCID 620C9908
REM COMMENT "ExactAudioCopy v0.99pb3"
PERFORMER "Oliver Lake"
TITLE "Again And Again"
FILE "01 Again And Again.wav" WAVE
TRACK 01 AUDIO
TITLE "Again And Again"
PERFORMER "Oliver Lake"
PREGAP 00:00:50
INDEX 01 00:00:00
TRACK 02 AUDIO
TITLE "Anyway"
PERFORMER "Oliver Lake"
INDEX 00 07:15:25
FILE "02 Anyway.wav" WAVE
INDEX 01 00:00:00
TRACK 03 AUDIO
TITLE "Cross River"
PERFORMER "Oliver Lake"
INDEX 00 07:18:38
FILE "03 Cross River.wav" WAVE
INDEX 01 00:00:00
FILE "04 Touch.wav" WAVE
TRACK 04 AUDIO
TITLE "Touch"
PERFORMER "Oliver Lake"
INDEX 01 00:00:00
TRACK 05 AUDIO
TITLE "Aztec"
PERFORMER "Oliver Lake"
INDEX 00 08:28:33
FILE "05 Aztec.wav" WAVE
INDEX 01 00:00:00
FILE "06 Mask.wav" WAVE
TRACK 06 AUDIO
TITLE "Mask"
PERFORMER "Oliver Lake"
INDEX 01 00:00:00
FILE "07 Re-cre-ate.wav" WAVE
TRACK 07 AUDIO
TITLE "Re-cre-ate"
PERFORMER "Oliver Lake"
INDEX 01 00:00:00
FILE "08 M.I.L.D..wav" WAVE
TRACK 08 AUDIO
TITLE "M.I.L.D."
PERFORMER "Oliver Lake"
INDEX 01 00:00:00
 
Лог проверки качества (auCDtect)
d:\>d:\aucdtect -d/-m0 d:\zzz\*.wav
auCDtect: CD records authenticity detector, version 0.8.2
Copyright (c) 2004 Oleg Berngardt. All rights reserved.
Copyright (c) 2004 Alexander Djourik. All rights reserved.
------------------------------------------------------------
Processing file: [01. Again And Again.wav]
------------------------------------------------------------
This track looks like CDDA with probability 99%
------------------------------------------------------------
Processing file: [02. Anyway.wav]
------------------------------------------------------------
This track looks like CDDA with probability 100%
------------------------------------------------------------
Processing file: [03. Cross River.wav]
------------------------------------------------------------
This track looks like CDDA with probability 100%
------------------------------------------------------------
Processing file: [04. Touch.wav]
------------------------------------------------------------
This track looks like CDDA with probability 100%
------------------------------------------------------------
Processing file: [05. Aztec.wav]
------------------------------------------------------------
This track looks like CDDA with probability 100%
------------------------------------------------------------
Processing file: [06. Mask.wav]
------------------------------------------------------------
This track looks like CDDA with probability 100%
------------------------------------------------------------
Processing file: [07. Re-cre-ate.wav]
------------------------------------------------------------
This track looks like CDDA with probability 100%
------------------------------------------------------------
Processing file: [08. M.I.L.D..wav]
------------------------------------------------------------
This track looks like CDDA with probability 100%
------------------------------------------------------------
Final Conclusion:
------------------------------------------------------------
These tracks looks like CDDA with probability 100%
d:\>del d:\zzz\*.wav
 
Скриншот спектра частот
 
Об альбоме (сборнике)
Album Description:
Altoist Oliver Lake (who also plays a bit of soprano on this session) performs eight of his complex but generally accessible ballads with pianist John Hicks, bassist Reggie Workman and drummer Pheeroan AkLaff. Although none of these originals are destined to become standards, they inspire Lake to come up with some of his more lyrical solos. ~ Scott Yanow
 
Discogs
Credits▼
Alto Saxophone, Soprano Saxophone – Oliver Lake
Artwork By [Design & Cover Artwork] – Chermayeff & Geismar, NYC
Bass – Reggie Workman
Drums – Pheeroan ak Laff
Executive-Producer – Jonathan F. P. Rose
Liner Notes – Oliver Lake
Mastered By – Bob Ludwig
Photography By – Sally Andersen-Bruce
Piano – John Hicks
Producer – Oliver Lake
Recorded By – Jim Anderson
Written By – Oliver Lake
По всем вопросам пишите личное сообщение пользователю M0p94ok.
05:47
282
Нет комментариев. Ваш будет первым!