Вы используете незарегистрированную версию компонента "Вкладки"!

Поиск

(Free Improvisation, Avant-Garde Jazz, Creative Sources) [CD] Szilard Mezei & Albert Markos - Korom - 2008, FLAC (tracks+.cue), lossless

(Free Improvisation, Avant-Garde Jazz, Creative Sources) [CD] Szilard Mezei & Albert Markos - Korom - 2008, FLAC (tracks+.cue), lossless
Треклист:
Szilard Mezei & Albert Markos / Korom
Жанр: Free Improvisation, Avant-Garde Jazz, Creative Sources
Носитель: CD
Страна-производитель диска (релиза): Portugal
Год издания: 2008
Издатель (лейбл): Creative Sources
Номер по каталогу: cs 123 cd
Страна исполнителя (группы): Serbia
Аудиокодек: FLAC (*.flac)
Тип рипа: tracks+.cue
Битрейт аудио: lossless
Продолжительность: 00:48:32
Источник (релизер): свой фирменный диск
Наличие сканов в содержимом раздачи:
Треклист:
1. Korom 1 15:05
2. Korom 2 9:02
3. Korom 3 0:19
4. Korom 4 0:29
5. Korom 5 0:20
6. Korom 6 0:31
7. Korom 7 0:23
8. Korom 8 0:23
9. Korom 9 0:38
10. Korom 10 1:08
11. Korom 11 0:31
12. Korom 12 0:47
13. Korom 13 0:29
14. Korom 14 0:47
15. Korom 15 0:46
16. Korom 16 3:43
17. Korom 17 9:02
18. Korom 18 3:14
 
Лог создания рипа
Exact Audio Copy V1.0 beta 3 from 29. August 2011
EAC extraction logfile from 13. December 2014, 17:36
Szilard Mezei & Albert Markos / Korom
Used drive : PIONEER DVD-RW DVR-115D Adapter: 0 ID: 0
Read mode : Secure
Utilize accurate stream : Yes
Defeat audio cache : Yes
Make use of C2 pointers : No
Read offset correction : 48
Overread into Lead-In and Lead-Out : No
Fill up missing offset samples with silence : Yes
Delete leading and trailing silent blocks : No
Null samples used in CRC calculations : Yes
Used interface : Installed external ASPI interface
Gap handling : Appended to previous track
Used output format : User Defined Encoder
Selected bitrate : 768 kBit/s
Quality : High
Add ID3 tag : No
Command line compressor : C:\Program Files\Exact Audio Copy\Flac\flac.exe
Additional command line options : -6 -V -T "ARTIST=%artist%" -T "TITLE=%title%" -T "ALBUM=%albumtitle%" -T "DATE=%year%" -T "TRACKNUMBER=%tracknr%" -T "GENRE=%genre%" -T "COMMENT=%comment%" -T "BAND=%albuminterpret%" -T "COMPOSER=%composer%" %haslyrics%--tag-from-file=LYRICS="%lyricsfile%"%haslyrics% -T "DISCNUMBER=%cdnumber%" -T "TOTALDISCS=%totalcds%" -T "TOTALTRACKS=%numtracks%" %hascover%--picture="%coverfile%"%hascover% %source% -o %dest%
TOC of the extracted CD
Track | Start | Length | Start sector | End sector
---------------------------------------------------------
1 | 0:00.00 | 15:09.65 | 0 | 68239
2 | 15:09.65 | 9:06.49 | 68240 | 109238
3 | 24:16.39 | 0:21.60 | 109239 | 110873
4 | 24:38.24 | 0:31.74 | 110874 | 113272
5 | 25:10.23 | 0:22.63 | 113273 | 114985
6 | 25:33.11 | 0:33.43 | 114986 | 117503
7 | 26:06.54 | 0:25.03 | 117504 | 119381
8 | 26:31.57 | 0:25.69 | 119382 | 121325
9 | 26:57.51 | 0:40.02 | 121326 | 124327
10 | 27:37.53 | 1:10.47 | 124328 | 129624
11 | 28:48.25 | 0:33.47 | 129625 | 132146
12 | 29:21.72 | 0:49.66 | 132147 | 135887
13 | 30:11.63 | 0:31.37 | 135888 | 138249
14 | 30:43.25 | 0:49.30 | 138250 | 141954
15 | 31:32.55 | 0:51.20 | 141955 | 145799
16 | 32:24.00 | 3:47.64 | 145800 | 162888
17 | 36:11.64 | 9:06.28 | 162889 | 203866
18 | 45:18.17 | 3:14.02 | 203867 | 218418
Track 1
Filename D:\zzz\01 - Korom 1.wav
Pre-gap length 0:00:02.00
Peak level 96.8 %
Extraction speed 5.8 X
Track quality 100.0 %
Test CRC 44F2897E
Copy CRC 44F2897E
Accurately ripped (confidence 1) [C9207757] (AR v2)
Copy OK
Track 2
Filename D:\zzz\02 - Korom 2.wav
Pre-gap length 0:00:02.00
Peak level 97.6 %
Extraction speed 6.8 X
Track quality 100.0 %
Test CRC 4F992259
Copy CRC 4F992259
Accurately ripped (confidence 1) [84123FF1] (AR v2)
Copy OK
Track 3
Filename D:\zzz\03 - Korom 3.wav
Pre-gap length 0:00:02.00
Peak level 46.6 %
Extraction speed 2.8 X
Track quality 100.0 %
Test CRC 1CC4EC10
Copy CRC 1CC4EC10
Accurately ripped (confidence 1) [98E435E2] (AR v2)
Copy OK
Track 4
Filename D:\zzz\04 - Korom 4.wav
Pre-gap length 0:00:02.00
Peak level 43.6 %
Extraction speed 3.6 X
Track quality 100.0 %
Test CRC 0C4942FE
Copy CRC 0C4942FE
Accurately ripped (confidence 1) [2EC3F5D0] (AR v2)
Copy OK
Track 5
Filename D:\zzz\05 - Korom 5.wav
Pre-gap length 0:00:02.00
Peak level 75.2 %
Extraction speed 2.9 X
Track quality 100.0 %
Test CRC 59E858DA
Copy CRC 59E858DA
Accurately ripped (confidence 1) [ED1911E2] (AR v2)
Copy OK
Track 6
Filename D:\zzz\06 - Korom 6.wav
Pre-gap length 0:00:02.00
Peak level 96.1 %
Extraction speed 3.6 X
Track quality 100.0 %
Test CRC 2ABC4595
Copy CRC 2ABC4595
Accurately ripped (confidence 1) [247DBC7A] (AR v2)
Copy OK
Track 7
Filename D:\zzz\07 - Korom 7.wav
Pre-gap length 0:00:02.00
Peak level 44.2 %
Extraction speed 3.2 X
Track quality 100.0 %
Test CRC 22A1BAA2
Copy CRC 22A1BAA2
Accurately ripped (confidence 1) [E37D8A02] (AR v2)
Copy OK
Track 8
Filename D:\zzz\08 - Korom 8.wav
Pre-gap length 0:00:02.00
Peak level 24.9 %
Extraction speed 2.1 X
Track quality 99.5 %
Test CRC 5633B455
Copy CRC 5633B455
Accurately ripped (confidence 1) [A5846723] (AR v2)
Copy OK
Track 9
Filename D:\zzz\09 - Korom 9.wav
Pre-gap length 0:00:02.00
Peak level 12.0 %
Extraction speed 4.1 X
Track quality 100.0 %
Test CRC AE45DD1C
Copy CRC AE45DD1C
Accurately ripped (confidence 1) [9290EFCD] (AR v2)
Copy OK
Track 10
Filename D:\zzz\10 - Korom 10.wav
Pre-gap length 0:00:02.00
Peak level 90.1 %
Extraction speed 5.2 X
Track quality 100.0 %
Test CRC 5BD1091A
Copy CRC 5BD1091A
Accurately ripped (confidence 1) [B082263E] (AR v2)
Copy OK
Track 11
Filename D:\zzz\11 - Korom 11.wav
Pre-gap length 0:00:02.00
Peak level 29.7 %
Extraction speed 3.8 X
Track quality 100.0 %
Test CRC 0F55C630
Copy CRC 0F55C630
Accurately ripped (confidence 1) [B85CC1AC] (AR v2)
Copy OK
Track 12
Filename D:\zzz\12 - Korom 12.wav
Pre-gap length 0:00:02.00
Peak level 45.9 %
Extraction speed 4.6 X
Track quality 100.0 %
Test CRC D3DB9764
Copy CRC D3DB9764
Accurately ripped (confidence 1) [8AC36B09] (AR v2)
Copy OK
Track 13
Filename D:\zzz\13 - Korom 13.wav
Pre-gap length 0:00:02.00
Peak level 78.7 %
Extraction speed 3.8 X
Track quality 100.0 %
Test CRC 4420D1A9
Copy CRC 4420D1A9
Accurately ripped (confidence 1) [B5277C00] (AR v2)
Copy OK
Track 14
Filename D:\zzz\14 - Korom 14.wav
Pre-gap length 0:00:02.00
Peak level 95.7 %
Extraction speed 4.6 X
Track quality 100.0 %
Test CRC 62DB54A2
Copy CRC 62DB54A2
Accurately ripped (confidence 1) [0B85F542] (AR v2)
Copy OK
Track 15
Filename D:\zzz\15 - Korom 15.wav
Pre-gap length 0:00:02.00
Peak level 81.8 %
Extraction speed 4.8 X
Track quality 100.0 %
Test CRC 8DC03E40
Copy CRC 8DC03E40
Accurately ripped (confidence 1) [4AC4AD8B] (AR v2)
Copy OK
Track 16
Filename D:\zzz\16 - Korom 16.wav
Pre-gap length 0:00:02.00
Peak level 89.6 %
Extraction speed 7.2 X
Track quality 100.0 %
Test CRC 19B13ED0
Copy CRC 19B13ED0
Accurately ripped (confidence 1) [30093AA9] (AR v2)
Copy OK
Track 17
Filename D:\zzz\17 - Korom 17.wav
Pre-gap length 0:00:02.00
Peak level 95.5 %
Extraction speed 8.2 X
Track quality 100.0 %
Test CRC A5A392D1
Copy CRC A5A392D1
Accurately ripped (confidence 1) [3BB0BFE7] (AR v2)
Copy OK
Track 18
Filename D:\zzz\18 - Korom 18.wav
Pre-gap length 0:00:02.00
Peak level 95.5 %
Extraction speed 7.7 X
Track quality 100.0 %
Test CRC F2C6BF5D
Copy CRC F2C6BF5D
Accurately ripped (confidence 1) [1B78242A] (AR v2)
Copy OK
All tracks accurately ripped
No errors occurred
End of status report
==== Log checksum DF7D2DCE7CD5704FA986F4C63A7F4C1E188078454EAD54C9436E0A205B9BA57D ====
 
Содержание индексной карты (.CUE)
REM GENRE "Free Improvisation"
REM DATE 2008
REM DISCID 0D0B6012
REM COMMENT "ExactAudioCopy v1.0b3"
PERFORMER "Szilard Mezei & Albert Markos"
TITLE "Korom"
FILE "01 - Korom 1.wav" WAVE
TRACK 01 AUDIO
TITLE "Korom 1"
PERFORMER "Szilard Mezei & Albert Markos"
INDEX 01 00:00:00
TRACK 02 AUDIO
TITLE "Korom 2"
PERFORMER "Szilard Mezei & Albert Markos"
INDEX 00 15:07:65
FILE "02 - Korom 2.wav" WAVE
INDEX 01 00:00:00
TRACK 03 AUDIO
TITLE "Korom 3"
PERFORMER "Szilard Mezei & Albert Markos"
INDEX 00 09:04:49
FILE "03 - Korom 3.wav" WAVE
INDEX 01 00:00:00
TRACK 04 AUDIO
TITLE "Korom 4"
PERFORMER "Szilard Mezei & Albert Markos"
INDEX 00 00:19:60
FILE "04 - Korom 4.wav" WAVE
INDEX 01 00:00:00
TRACK 05 AUDIO
TITLE "Korom 5"
PERFORMER "Szilard Mezei & Albert Markos"
INDEX 00 00:29:74
FILE "05 - Korom 5.wav" WAVE
INDEX 01 00:00:00
TRACK 06 AUDIO
TITLE "Korom 6"
PERFORMER "Szilard Mezei & Albert Markos"
INDEX 00 00:20:63
FILE "06 - Korom 6.wav" WAVE
INDEX 01 00:00:00
TRACK 07 AUDIO
TITLE "Korom 7"
PERFORMER "Szilard Mezei & Albert Markos"
INDEX 00 00:31:43
FILE "07 - Korom 7.wav" WAVE
INDEX 01 00:00:00
TRACK 08 AUDIO
TITLE "Korom 8"
PERFORMER "Szilard Mezei & Albert Markos"
INDEX 00 00:23:03
FILE "08 - Korom 8.wav" WAVE
INDEX 01 00:00:00
TRACK 09 AUDIO
TITLE "Korom 9"
PERFORMER "Szilard Mezei & Albert Markos"
INDEX 00 00:23:69
FILE "09 - Korom 9.wav" WAVE
INDEX 01 00:00:00
TRACK 10 AUDIO
TITLE "Korom 10"
PERFORMER "Szilard Mezei & Albert Markos"
INDEX 00 00:38:02
FILE "10 - Korom 10.wav" WAVE
INDEX 01 00:00:00
TRACK 11 AUDIO
TITLE "Korom 11"
PERFORMER "Szilard Mezei & Albert Markos"
INDEX 00 01:08:47
FILE "11 - Korom 11.wav" WAVE
INDEX 01 00:00:00
TRACK 12 AUDIO
TITLE "Korom 12"
PERFORMER "Szilard Mezei & Albert Markos"
INDEX 00 00:31:47
FILE "12 - Korom 12.wav" WAVE
INDEX 01 00:00:00
TRACK 13 AUDIO
TITLE "Korom 13"
PERFORMER "Szilard Mezei & Albert Markos"
INDEX 00 00:47:66
FILE "13 - Korom 13.wav" WAVE
INDEX 01 00:00:00
TRACK 14 AUDIO
TITLE "Korom 14"
PERFORMER "Szilard Mezei & Albert Markos"
INDEX 00 00:29:37
FILE "14 - Korom 14.wav" WAVE
INDEX 01 00:00:00
TRACK 15 AUDIO
TITLE "Korom 15"
PERFORMER "Szilard Mezei & Albert Markos"
INDEX 00 00:47:30
FILE "15 - Korom 15.wav" WAVE
INDEX 01 00:00:00
TRACK 16 AUDIO
TITLE "Korom 16"
PERFORMER "Szilard Mezei & Albert Markos"
INDEX 00 00:49:20
FILE "16 - Korom 16.wav" WAVE
INDEX 01 00:00:00
TRACK 17 AUDIO
TITLE "Korom 17"
PERFORMER "Szilard Mezei & Albert Markos"
INDEX 00 03:45:64
FILE "17 - Korom 17.wav" WAVE
INDEX 01 00:00:00
TRACK 18 AUDIO
TITLE "Korom 18"
PERFORMER "Szilard Mezei & Albert Markos"
INDEX 00 09:04:28
FILE "18 - Korom 18.wav" WAVE
INDEX 01 00:00:00
 
Лог проверки качества
d:\>d:\aucdtect -d/-m0 d:\zzz\*.wav
auCDtect: CD records authenticity detector, version 0.8.2
Copyright (c) 2004 Oleg Berngardt. All rights reserved.
Copyright (c) 2004 Alexander Djourik. All rights reserved.
------------------------------------------------------------
Processing file: [01. Korom 1.wav]
------------------------------------------------------------
This track looks like CDDA with probability 100%
------------------------------------------------------------
Processing file: [02. Korom 2.wav]
------------------------------------------------------------
This track looks like CDDA with probability 100%
------------------------------------------------------------
Processing file: [03. Korom 3.wav]
------------------------------------------------------------
This track looks like CDDA with probability 100%
------------------------------------------------------------
Processing file: [04. Korom 4.wav]
------------------------------------------------------------
This track looks like CDDA with probability 100%
------------------------------------------------------------
Processing file: [05. Korom 5.wav]
------------------------------------------------------------
This track looks like CDDA with probability 100%
------------------------------------------------------------
Processing file: [06. Korom 6.wav]
------------------------------------------------------------
This track looks like CDDA with probability 100%
------------------------------------------------------------
Processing file: [07. Korom 7.wav]
------------------------------------------------------------
This track looks like CDDA with probability 100%
------------------------------------------------------------
Processing file: [08. Korom 8.wav]
------------------------------------------------------------
This track looks like CDDA with probability 100%
------------------------------------------------------------
Processing file: [09. Korom 9.wav]
------------------------------------------------------------
This track looks like CDDA with probability 100%
------------------------------------------------------------
Processing file: [10. Korom 10.wav]
------------------------------------------------------------
This track looks like CDDA with probability 100%
------------------------------------------------------------
Processing file: [11. Korom 11.wav]
------------------------------------------------------------
This track looks like CDDA with probability 100%
------------------------------------------------------------
Processing file: [12. Korom 12.wav]
------------------------------------------------------------
This track looks like CDDA with probability 100%
------------------------------------------------------------
Processing file: [13. Korom 13.wav]
------------------------------------------------------------
This track looks like CDDA with probability 100%
------------------------------------------------------------
Processing file: [14. Korom 14.wav]
------------------------------------------------------------
This track looks like CDDA with probability 100%
------------------------------------------------------------
Processing file: [15. Korom 15.wav]
------------------------------------------------------------
This track looks like CDDA with probability 100%
------------------------------------------------------------
Processing file: [16. Korom 16.wav]
------------------------------------------------------------
This track looks like CDDA with probability 100%
------------------------------------------------------------
Processing file: [17. Korom 17.wav]
------------------------------------------------------------
This track looks like CDDA with probability 100%
------------------------------------------------------------
Processing file: [18. Korom 18.wav]
------------------------------------------------------------
This track looks like CDDA with probability 99%
------------------------------------------------------------
Final Conclusion:
------------------------------------------------------------
These tracks looks like CDDA with probability 100%
Доп. информация:
 
Album Info & Review
Recorded May 2007 at Studio Vilenjak, Novi Sad, Serbia by Sasa Milankov
Illustrations by b.z.
Graphic design by Carlos Santos
Production by Ernesto Rodrigues
Viola and cello make for a magnificent combination, this duo celebrating a wedding typified by present-day romanticism and witty improvisational options. The subdivision of “Korom” in diminutive sections (down to 19 seconds) comprised between the longer pieces beginning and ending the album attributes an inner symmetry to the whole configuration, a welcome addition to an already exquisite experience. The players investigate singular aspects of sonic free will with self control and moderation, absolutely not afraid of letting the horses go every once in a while. What starts like an almost regretful look to far-flung temporal landscapes often turns into a restless consecutiveness of calls and responses, the “scrape, scratch and pluck” factor gaining considerable weight over the course of the set. Yet the most striking attributes of this music reside in the artists’ quest for extrapolating newness from unplanned sketches and designs which, at the same time, seem to have been conceived a hundred years ago, such is the magic aura of improbability and secluded grief that these phrases originate in the soul of the sensitive listener. There’s not a moment in which we were caught unprepared by this unpretentious splendor. A seriously involving record, the unforeseen gift from two musicians whose curricula are definitely impressive (check them and remain in awe, especially in reference to Mezei’s) yet still worthy of being exposed to bigger and bigger audiences. - Massimo Ricci, Touching Extremes
 
Состав
Szilard Mezei: viola
Albert Markos: cello
По всем вопросам пишите личное сообщение пользователю M0p94ok.
09:46
165
Нет комментариев. Ваш будет первым!