Вы используете незарегистрированную версию компонента "Вкладки"!

Поиск

(Free Improvisation, Avant-Garde Jazz) [CD] Roger Turner & Otomo Yoshihide - The Last Train - 2015, FLAC (tracks+.cue), lossless

(Free Improvisation, Avant-Garde Jazz) [CD] Roger Turner & Otomo Yoshihide - The Last Train - 2015, FLAC (tracks+.cue), lossless
Треклист:
ROGER TURNER ' OTOMO YOSHIHIDE
THE LAST TRAIN
Жанр: Free Improvisation, Avant-Garde Jazz
Страна-производитель диска: UK
Год издания: 2015
Издатель (лейбл): Fataka
Номер по каталогу: 10
Аудиокодек: FLAC (*.flac)
Тип рипа: tracks+.cue
Битрейт аудио: lossless
Продолжительность: 40:23
Источник (релизер): спасибо MovingShadowy
Наличие сканов: front
Треклист:
1. THE WAIT
2. THE SIGN
3. CRACK
4. RUN
 
Лог создания рипа
Exact Audio Copy V1.0 beta 3 from 29. August 2011
EAC extraction logfile from 26. February 2015, 19:33
Roger Turner / Otomo Yoshihide / The Last Train
Used drive : hp DVDWBD TS-LB23L Adapter: 1 ID: 0
Read mode : Secure
Utilize accurate stream : Yes
Defeat audio cache : Yes
Make use of C2 pointers : No
Read offset correction : 6
Overread into Lead-In and Lead-Out : No
Fill up missing offset samples with silence : Yes
Delete leading and trailing silent blocks : No
Null samples used in CRC calculations : Yes
Used interface : Native Win32 interface for Win NT & 2000
Gap handling : Appended to previous track
Used output format : User Defined Encoder
Selected bitrate : 1024 kBit/s
Quality : High
Add ID3 tag : No
Command line compressor : C:\Program Files (x86)\Exact Audio Copy\FLAC\FLAC.EXE
Additional command line options : -8 -V -T "ARTIST=%artist%" -T "TITLE=%title%" -T "ALBUM=%albumtitle%" -T "DATE=%year%" -T "TRACKNUMBER=%tracknr%" -T "GENRE=%genre%" -T "PERFORMER=%albuminterpret%" -T "COMPOSER=%composer%" %haslyrics%--tag-from-file=LYRICS="%lyricsfile%"%haslyrics% -T "ALBUMARTIST=%albumartist%" -T "DISCNUMBER=%cdnumber%" -T "TOTALDISCS=%totalcds%" -T "TOTALTRACKS=%numtracks%" -T "COMMENT=%comment%" %source% -o %dest%
TOC of the extracted CD
Track | Start | Length | Start sector | End sector
---------------------------------------------------------
1 | 0:00.00 | 16:28.00 | 0 | 74099
2 | 16:28.00 | 8:20.58 | 74100 | 111657
3 | 24:48.58 | 11:41.01 | 111658 | 164233
4 | 36:29.59 | 3:53.36 | 164234 | 181744
Track 1
Filename C:\FLAC\The Last Train\01 The Wait.wav
Pre-gap length 0:00:02.00
Peak level 100.0 %
Extraction speed 1.6 X
Track quality 99.9 %
Test CRC FABD29CA
Copy CRC FABD29CA
Track not present in AccurateRip database
Copy OK
Track 2
Filename C:\FLAC\The Last Train\02 The Sign.wav
Peak level 100.0 %
Extraction speed 2.0 X
Track quality 100.0 %
Test CRC 06738819
Copy CRC 06738819
Track not present in AccurateRip database
Copy OK
Track 3
Filename C:\FLAC\The Last Train\03 Crack.wav
Peak level 100.0 %
Extraction speed 2.4 X
Track quality 100.0 %
Test CRC 81DC6FDA
Copy CRC 81DC6FDA
Track not present in AccurateRip database
Copy OK
Track 4
Filename C:\FLAC\The Last Train\04 Run.wav
Peak level 100.0 %
Extraction speed 2.4 X
Track quality 100.0 %
Test CRC 42730A38
Copy CRC 42730A38
Track not present in AccurateRip database
Copy OK
None of the tracks are present in the AccurateRip database
No errors occurred
End of status report
---- CUETools DB Plugin V2.1.4
[CTDB TOCID: lnQoALN.tTpZXSHsVQ4jhDILjJo-] disk not present in database
Submit result: lnQoALN.tTpZXSHsVQ4jhDILjJo- has been uploaded
==== Log checksum 330C04AB9EA233E239B47FCAE505D4FF6F5B53A9170BF41C2C663D24E1E2D7E9 ====
------------------------------------------------------------
Exact Audio Copy V1.0 beta 3 from 29. August 2011
EAC extraction logfile from 26. February 2015, 19:34
Roger Turner / Otomo Yoshihide / The Last Train
Used drive : hp DVDWBD TS-LB23L Adapter: 1 ID: 0
Read mode : Secure
Utilize accurate stream : Yes
Defeat audio cache : Yes
Make use of C2 pointers : No
Read offset correction : 6
Overread into Lead-In and Lead-Out : No
Fill up missing offset samples with silence : Yes
Delete leading and trailing silent blocks : No
Null samples used in CRC calculations : Yes
Used interface : Native Win32 interface for Win NT & 2000
Gap handling : Appended to previous track
Used output format : User Defined Encoder
Selected bitrate : 1024 kBit/s
Quality : High
Add ID3 tag : No
Command line compressor : C:\Program Files (x86)\Exact Audio Copy\FLAC\FLAC.EXE
Additional command line options : -8 -V -T "ARTIST=%artist%" -T "TITLE=%title%" -T "ALBUM=%albumtitle%" -T "DATE=%year%" -T "TRACKNUMBER=%tracknr%" -T "GENRE=%genre%" -T "PERFORMER=%albuminterpret%" -T "COMPOSER=%composer%" %haslyrics%--tag-from-file=LYRICS="%lyricsfile%"%haslyrics% -T "ALBUMARTIST=%albumartist%" -T "DISCNUMBER=%cdnumber%" -T "TOTALDISCS=%totalcds%" -T "TOTALTRACKS=%numtracks%" -T "COMMENT=%comment%" %source% -o %dest%
TOC of the extracted CD
Track | Start | Length | Start sector | End sector
---------------------------------------------------------
1 | 0:00.00 | 16:28.00 | 0 | 74099
2 | 16:28.00 | 8:20.58 | 74100 | 111657
3 | 24:48.58 | 11:41.01 | 111658 | 164233
4 | 36:29.59 | 3:53.36 | 164234 | 181744
Track 1
Filename C:\FLAC\The Last Train\01 The Wait.wav
Pre-gap length 0:00:02.00
Peak level 100.0 %
Extraction speed 1.6 X
Track quality 99.9 %
Test CRC FABD29CA
Copy CRC FABD29CA
Track not present in AccurateRip database
Copy OK
Track 2
Filename C:\FLAC\The Last Train\02 The Sign.wav
Peak level 100.0 %
Extraction speed 2.0 X
Track quality 100.0 %
Test CRC 06738819
Copy CRC 06738819
Track not present in AccurateRip database
Copy OK
Track 3
Filename C:\FLAC\The Last Train\03 Crack.wav
Peak level 100.0 %
Extraction speed 2.4 X
Track quality 100.0 %
Test CRC 81DC6FDA
Copy CRC 81DC6FDA
Track not present in AccurateRip database
Copy OK
Track 4
Filename C:\FLAC\The Last Train\04 Run.wav
Peak level 100.0 %
Extraction speed 2.4 X
Track quality 100.0 %
Test CRC 42730A38
Copy CRC 42730A38
Track not present in AccurateRip database
Copy OK
None of the tracks are present in the AccurateRip database
No errors occurred
End of status report
---- CUETools DB Plugin V2.1.4
[CTDB TOCID: lnQoALN.tTpZXSHsVQ4jhDILjJo-] disk not present in database
Submit result: lnQoALN.tTpZXSHsVQ4jhDILjJo- has been uploaded
==== Log checksum EEF851B863826A419219F5D76CBEB3C04DAC22107CFF7CDCBBE697CD6D2C9E46 ====
 
Содержание индексной карты (.CUE)
REM GENRE Avantgarde
REM DATE 2015
REM DISCID 2F097704
REM COMMENT "ExactAudioCopy v1.0b3"
PERFORMER "Roger Turner / Otomo Yoshihide"
TITLE "The Last Train"
FILE "01 The Wait.wav" WAVE
TRACK 01 AUDIO
TITLE "The Wait"
PERFORMER "Roger Turner / Otomo Yoshihide"
INDEX 01 00:00:00
FILE "02 The Sign.wav" WAVE
TRACK 02 AUDIO
TITLE "The Sign"
PERFORMER "Roger Turner / Otomo Yoshihide"
INDEX 01 00:00:00
FILE "03 Crack.wav" WAVE
TRACK 03 AUDIO
TITLE "Crack"
PERFORMER "Roger Turner / Otomo Yoshihide"
INDEX 01 00:00:00
FILE "04 Run.wav" WAVE
TRACK 04 AUDIO
TITLE "Run"
PERFORMER "Roger Turner / Otomo Yoshihide"
INDEX 01 00:00:00
 
Об альбоме
Recorded at Tokyo's Hara Museum in February 2013, this duo brings together London's Roger Turner on percussion with Japan's own Otomo Yoshihide on guitar and amplifier, an improv meeting of two masters with very different but equally impressive histories. Across four tracks ranging in length from four to sixteen-and-a-half minutes—forty minutes altogether—they give an object lesson in the art of duo improvisation, a format in which both players are constantly exposed with no easy place to hide, although that clearly holds no fear for either Turner or Otomo.
The exposed nature of duo playing means that both of them are clearly audible throughout, with the excellent recording capturing every detail and nuance perfectly. So, we get to hear all the minutiae of Turner's cymbal work, one of the key strengths of his playing as it ebbs and flows to complement Otomo's own peaks and troughs—the kind of fine detail that can all too easily be lost in a concert setting; while it can often be difficult to disagree with those who claim that improv is best experienced live, this album provides a powerful counter-example.
Otomo is just as impressive as Turner, producing a dazzling array of sounds that vary greatly in volume, timbre and tonal quality, the common denominator being their rightness for the moment in which they are played. At one extreme is the quiet filigree detail of "Crack," which is matched by similar restraint from Turner, at the other end of the spectrum the explosive Sturm und Drang of the same track's blistering climax. Throughout, Turner and Otomo are totally locked into each other, with the interactions between them radiating impressive levels of control, empathy and focus.
Without naming and shaming any culprits, it is worth reminding ourselves that duo improv is not always as easy as Turner and Otomo make it sound here; sometimes, opening exchanges can be tentative and, throughout, there can be occasional flat spots. But when it does work well, it sounds as natural as breathing and seems almost miraculous. The Last Train is one such case and should be savoured and celebrated as such.
4,5/5 stars
(John Eyles, AllAboutJazz)
Roger Turner - drum set, percussion
Otomo Yoshihide - guitar, amplifier
По всем вопросам пишите личное сообщение пользователю M0p94ok.
09:45
178
Нет комментариев. Ваш будет первым!