Вы используете незарегистрированную версию компонента "Вкладки"!

Поиск

(Avant-Garde Jazz, Free Improvisation) [CD] All Time Present (Chris Forsyth, Rich Gross, Ethan Sklar, David Gould, Toshi Makihara) - Good Vibrations / No Expectations - 2000, FLAC (tracks+.cue), lossless

(Avant-Garde Jazz, Free Improvisation) [CD] All Time Present (Chris Forsyth, Rich Gross, Ethan Sklar, David Gould, Toshi Makihara) - Good Vibrations / No Expectations - 2000, FLAC (tracks+.cue), lossless
Треклист:
All Time Present / Good Vibrations / No Expectations
Жанр: Avant-Garde Jazz, Free Improvisation
Носитель: CD
Страна-производитель диска (релиза): US
Год издания: 2000
Издатель (лейбл): Evolving Ear
Номер по каталогу: EE 02
Страна исполнителя (группы): US
Аудиокодек: FLAC (*.flac)
Тип рипа: tracks+.cue
Битрейт аудио: lossless
Продолжительность: 00:53:46
Источник (релизер): свой фирменный диск
Наличие сканов в содержимом раздачи:
Треклист:
1. untitled 1:49
2. untitled 8:05
3. untitled 3:37
4. untitled 5:46
5. untitled 6:17
6. untitled 4:03
7. untitled 14:19
8. untitled 9:48
 
Лог создания рипа
Exact Audio Copy V1.0 beta 3 from 29. August 2011
EAC extraction logfile from 27. December 2014, 20:09
All Time Present / Good Vibrations / No Expectations
Used drive : TSSTcorpCDDVDW SH-222AB Adapter: 1 ID: 0
Read mode : Secure
Utilize accurate stream : Yes
Defeat audio cache : Yes
Make use of C2 pointers : No
Read offset correction : 6
Overread into Lead-In and Lead-Out : No
Fill up missing offset samples with silence : Yes
Delete leading and trailing silent blocks : No
Null samples used in CRC calculations : Yes
Used interface : Installed external ASPI interface
Gap handling : Appended to previous track
Used output format : User Defined Encoder
Selected bitrate : 768 kBit/s
Quality : High
Add ID3 tag : No
Command line compressor : C:\Program Files\Exact Audio Copy\Flac\flac.exe
Additional command line options : -6 -V -T "ARTIST=%artist%" -T "TITLE=%title%" -T "ALBUM=%albumtitle%" -T "DATE=%year%" -T "TRACKNUMBER=%tracknr%" -T "GENRE=%genre%" -T "COMMENT=%comment%" -T "BAND=%albuminterpret%" -T "COMPOSER=%composer%" %haslyrics%--tag-from-file=LYRICS="%lyricsfile%"%haslyrics% -T "DISCNUMBER=%cdnumber%" -T "TOTALDISCS=%totalcds%" -T "TOTALTRACKS=%numtracks%" %hascover%--picture="%coverfile%"%hascover% %source% -o %dest%
TOC of the extracted CD
Track | Start | Length | Start sector | End sector
---------------------------------------------------------
1 | 0:00.00 | 1:49.01 | 0 | 8175
2 | 1:49.01 | 8:05.01 | 8176 | 44551
3 | 9:54.02 | 3:37.01 | 44552 | 60827
4 | 13:31.03 | 5:46.01 | 60828 | 86778
5 | 19:17.04 | 6:17.01 | 86779 | 115054
6 | 25:34.05 | 4:03.01 | 115055 | 133280
7 | 29:37.06 | 14:19.01 | 133281 | 197706
8 | 43:56.07 | 9:50.01 | 197707 | 241957
Track 1
Filename D:\zzz\01 - untitled.wav
Pre-gap length 0:00:02.00
Peak level 100.0 %
Extraction speed 3.5 X
Track quality 100.0 %
Test CRC B930EB17
Copy CRC B930EB17
Accurately ripped (confidence 1) [E37DEBC0] (AR v2)
Copy OK
Track 2
Filename D:\zzz\02 - untitled.wav
Peak level 99.8 %
Extraction speed 5.0 X
Track quality 100.0 %
Test CRC C235B53F
Copy CRC C235B53F
Accurately ripped (confidence 1) [9F4A1B49] (AR v2)
Copy OK
Track 3
Filename D:\zzz\03 - untitled.wav
Peak level 98.3 %
Extraction speed 5.2 X
Track quality 100.0 %
Test CRC F3F67464
Copy CRC F3F67464
Accurately ripped (confidence 1) [990D786D] (AR v2)
Copy OK
Track 4
Filename D:\zzz\04 - untitled.wav
Peak level 100.0 %
Extraction speed 5.9 X
Track quality 100.0 %
Test CRC A5D4F3EE
Copy CRC A5D4F3EE
Accurately ripped (confidence 1) [B3E79B01] (AR v2)
Copy OK
Track 5
Filename D:\zzz\05 - untitled.wav
Peak level 97.6 %
Extraction speed 6.5 X
Track quality 100.0 %
Test CRC FB81D59A
Copy CRC FB81D59A
Accurately ripped (confidence 1) [EDACF3E8] (AR v2)
Copy OK
Track 6
Filename D:\zzz\06 - untitled.wav
Peak level 97.8 %
Extraction speed 5.8 X
Track quality 99.9 %
Test CRC 95BA6A5D
Copy CRC 95BA6A5D
Accurately ripped (confidence 1) [3B574F0A] (AR v2)
Copy OK
Track 7
Filename D:\zzz\07 - untitled.wav
Peak level 100.0 %
Extraction speed 7.9 X
Track quality 100.0 %
Test CRC 956958CC
Copy CRC 956958CC
Accurately ripped (confidence 1) [8196EEC1] (AR v2)
Copy OK
Track 8
Filename D:\zzz\08 - untitled.wav
Peak level 100.0 %
Extraction speed 8.4 X
Track quality 100.0 %
Test CRC 976F3593
Copy CRC 976F3593
Accurately ripped (confidence 1) [317C2D47] (AR v2)
Copy OK
All tracks accurately ripped
No errors occurred
End of status report
==== Log checksum 04FF6966E0E5C92E4E9346490549F37E834599ADEF69F502A15BC9BDD7679DF5 ====
 
Содержание индексной карты (.CUE)
REM GENRE "Free Improvisation"
REM DATE 2000
REM DISCID 6F0C9A08
REM COMMENT "ExactAudioCopy v1.0b3"
PERFORMER "All Time Present"
TITLE "Good Vibrations / No Expectations"
FILE "01 - untitled.wav" WAVE
TRACK 01 AUDIO
TITLE "untitled"
PERFORMER "All Time Present"
INDEX 01 00:00:00
FILE "02 - untitled.wav" WAVE
TRACK 02 AUDIO
TITLE "untitled"
PERFORMER "All Time Present"
INDEX 01 00:00:00
FILE "03 - untitled.wav" WAVE
TRACK 03 AUDIO
TITLE "untitled"
PERFORMER "All Time Present"
INDEX 01 00:00:00
FILE "04 - untitled.wav" WAVE
TRACK 04 AUDIO
TITLE "untitled"
PERFORMER "All Time Present"
INDEX 01 00:00:00
FILE "05 - untitled.wav" WAVE
TRACK 05 AUDIO
TITLE "untitled"
PERFORMER "All Time Present"
INDEX 01 00:00:00
FILE "06 - untitled.wav" WAVE
TRACK 06 AUDIO
TITLE "untitled"
PERFORMER "All Time Present"
INDEX 01 00:00:00
FILE "07 - untitled.wav" WAVE
TRACK 07 AUDIO
TITLE "untitled"
PERFORMER "All Time Present"
INDEX 01 00:00:00
FILE "08 - untitled.wav" WAVE
TRACK 08 AUDIO
TITLE "untitled"
PERFORMER "All Time Present"
INDEX 01 00:00:00
 
Лог проверки качества
d:\>d:\aucdtect -d/-m0 d:\zzz\*.wav
auCDtect: CD records authenticity detector, version 0.8.2
Copyright (c) 2004 Oleg Berngardt. All rights reserved.
Copyright (c) 2004 Alexander Djourik. All rights reserved.
------------------------------------------------------------
Processing file: [01. untitled.wav]
------------------------------------------------------------
This track looks like CDDA with probability 100%
------------------------------------------------------------
Processing file: [02. untitled.wav]
------------------------------------------------------------
This track looks like CDDA with probability 100%
------------------------------------------------------------
Processing file: [03. untitled.wav]
------------------------------------------------------------
This track looks like CDDA with probability 100%
------------------------------------------------------------
Processing file: [04. untitled.wav]
------------------------------------------------------------
This track looks like CDDA with probability 100%
------------------------------------------------------------
Processing file: [05. untitled.wav]
------------------------------------------------------------
This track looks like CDDA with probability 99%
------------------------------------------------------------
Processing file: [06. untitled.wav]
------------------------------------------------------------
This track looks like CDDA with probability 87%
------------------------------------------------------------
Processing file: [07. untitled.wav]
------------------------------------------------------------
This track looks like CDDA with probability 100%
------------------------------------------------------------
Processing file: [08. untitled.wav]
------------------------------------------------------------
This track looks like CDDA with probability 92%
------------------------------------------------------------
Final Conclusion:
------------------------------------------------------------
These tracks looks like CDDA with probability 100%
Доп. информация:
 
Album Info & AMG Review
All music (C)2000 Forsyth/Gould/Gross/Makihara/Sklar
Recorded over the course of three sessions in February and May of 2000.
Recorded at: Wombat Recording Co., Brooklyn, by Ross Bonadonna
Rittenhouse Recording, Philadelphia, by Jim Hamilton
Live @ Wrek, 91.1 FM, Atlanta, by Robert Myers
All photos (C)2000 Maria Dumlao
Design by Littlegem Design
Liner notes: ATP
Good Vibrations/No Expectations is All Time Present's first "official" CD (a self-titled CD-R was released the previous year). Three electric guitars plus two drummers equals noise rock-based free improvisation. Something like a cross between Derek Bailey's The Sign of 4 and Thurston Moore's more experimental projects, the music of this quintet is of the "here-and-now" category: visceral, immediate, and quickly forgotten. Not "forgettable," forgotten: the free form of these pieces allows fast decay in the listener's memory and the possibility to rediscover them the next time. The eight untitled improvs explore a vast range of emotions and textures, from the almost bluesy opener to the noise fabric of track three. This CD should help guitarist Chris Forsyth establish a name for himself, since this project is much stronger than his duo CD with Ernesto Diaz-Infante or his work with N.Y.C.'s W.O.O. Revelator. Some pieces showcase only the guitar trio, but the best ones are those including percussionists David Gould and Toshi Makihara -- the five of them produce what could be termed as "controlled sonic mayhem." Fans of guitar-based free form should devote some attention to this release. It's worth it. Recommended. - Francois Couture, AMG
 
Состав
Chris Forsyth: electric guitar
Rich Gross: electric guitar
Ethan Sklar: electric guitar
David Gould: drums & percussion
Toshi Makihara: drums & percussion
По всем вопросам пишите личное сообщение пользователю M0p94ok.
09:46
204
Нет комментариев. Ваш будет первым!