Вы используете незарегистрированную версию компонента "Вкладки"!

Поиск

(Avant-Garde Jazz, Free Jazz) [CD] Phillip Greenlief & Covered Pages (w/ Nels Cline, Vinny Golia, G.E. Stinson) - Russian Notebooks - 2000, FLAC (tracks+.cue), lossless

Треклист:
Phillip Greenlief & Covered Pages / Russian Notebooks
Жанр: Avant-Garde Jazz, Free Jazz
Носитель: CD
Страна-производитель диска (релиза): US
Год издания: 2000
Издатель (лейбл): Evander Music
Номер по каталогу: Em 007
Страна исполнителя (группы): US
Аудиокодек: FLAC (*.flac)
Тип рипа: tracks+.cue
Битрейт аудио: lossless
Продолжительность: 00:52:38
Источник (релизер): свой фирменный диск
Наличие сканов в содержимом раздачи:
Треклист:
1. Cathedrals Of Novgorod 10:14
2. Wherewithal (For Shostokovich) 4:05
3. Little Vacationing In Chechnaya 4:39
4. 34 Plechanova Ulitza, Kb 7 7:35
5. Portrait Of Anna Akhmatova 13:52
6. Notebook Fragment For Svetlana Cherkina 2:21
7. Raskolnikov's Attic 5:21
8. Last Night On The Neva 3:39
 
Лог создания рипа
Exact Audio Copy V1.0 beta 3 from 29. August 2011
EAC extraction logfile from 28. December 2014, 19:45
Phillip Greenlief & Covered Pages / Russian Notebooks
Used drive : PIONEER DVD-RW DVR-115D Adapter: 0 ID: 0
Read mode : Secure
Utilize accurate stream : Yes
Defeat audio cache : Yes
Make use of C2 pointers : No
Read offset correction : 48
Overread into Lead-In and Lead-Out : No
Fill up missing offset samples with silence : Yes
Delete leading and trailing silent blocks : No
Null samples used in CRC calculations : Yes
Used interface : Installed external ASPI interface
Gap handling : Appended to previous track
Used output format : User Defined Encoder
Selected bitrate : 768 kBit/s
Quality : High
Add ID3 tag : No
Command line compressor : C:\Program Files\Exact Audio Copy\Flac\flac.exe
Additional command line options : -6 -V -T "ARTIST=%artist%" -T "TITLE=%title%" -T "ALBUM=%albumtitle%" -T "DATE=%year%" -T "TRACKNUMBER=%tracknr%" -T "GENRE=%genre%" -T "COMMENT=%comment%" -T "BAND=%albuminterpret%" -T "COMPOSER=%composer%" %haslyrics%--tag-from-file=LYRICS="%lyricsfile%"%haslyrics% -T "DISCNUMBER=%cdnumber%" -T "TOTALDISCS=%totalcds%" -T "TOTALTRACKS=%numtracks%" %hascover%--picture="%coverfile%"%hascover% %source% -o %dest%
TOC of the extracted CD
Track | Start | Length | Start sector | End sector
---------------------------------------------------------
1 | 0:00.00 | 10:19.31 | 0 | 46455
2 | 10:19.31 | 4:11.23 | 46456 | 65303
3 | 14:30.54 | 4:45.05 | 65304 | 86683
4 | 19:15.59 | 7:41.21 | 86684 | 121279
5 | 26:57.05 | 13:57.59 | 121280 | 184113
6 | 40:54.64 | 2:27.45 | 184114 | 195183
7 | 43:22.34 | 5:27.13 | 195184 | 219721
8 | 48:49.47 | 3:48.33 | 219722 | 236854
Track 1
Filename D:\zzz\01 - Cathedrals Of Novgorod.wav
Pre-gap length 0:00:02.00
Peak level 98.8 %
Extraction speed 5.0 X
Track quality 100.0 %
Test CRC 355251F1
Copy CRC 355251F1
Track not present in AccurateRip database
Copy OK
Track 2
Filename D:\zzz\02 - Wherewithal (For Shostokovich).wav
Pre-gap length 0:00:05.60
Peak level 98.8 %
Extraction speed 4.8 X
Track quality 99.9 %
Test CRC EC7DC6E3
Copy CRC EC7DC6E3
Track not present in AccurateRip database
Copy OK
Track 3
Filename D:\zzz\03 - Little Vacationing In Chechnaya.wav
Pre-gap length 0:00:05.60
Peak level 76.2 %
Extraction speed 5.9 X
Track quality 100.0 %
Test CRC FBAF7328
Copy CRC FBAF7328
Track not present in AccurateRip database
Copy OK
Track 4
Filename D:\zzz\04 - 34 Plechanova Ulitza, Kb 7.wav
Pre-gap length 0:00:05.60
Peak level 98.8 %
Extraction speed 6.6 X
Track quality 100.0 %
Test CRC AEC1DEE1
Copy CRC AEC1DEE1
Track not present in AccurateRip database
Copy OK
Track 5
Filename D:\zzz\05 - Portrait Of Anna Ahkmatova.wav
Pre-gap length 0:00:05.60
Peak level 93.1 %
Extraction speed 7.6 X
Track quality 100.0 %
Test CRC 984E3B31
Copy CRC 984E3B31
Track not present in AccurateRip database
Copy OK
Track 6
Filename D:\zzz\06 - Notebook Fragment For Svetlana Cherkina.wav
Pre-gap length 0:00:05.60
Peak level 73.4 %
Extraction speed 6.8 X
Track quality 100.0 %
Test CRC C4BB3A6D
Copy CRC C4BB3A6D
Track not present in AccurateRip database
Copy OK
Track 7
Filename D:\zzz\07 - Raskolnikov's Attic.wav
Pre-gap length 0:00:05.60
Peak level 97.7 %
Extraction speed 7.9 X
Track quality 100.0 %
Test CRC 6132D2DA
Copy CRC 6132D2DA
Track not present in AccurateRip database
Copy OK
Track 8
Filename D:\zzz\08 - Last Night On The Neva.wav
Pre-gap length 0:00:05.60
Peak level 90.7 %
Extraction speed 6.8 X
Track quality 99.9 %
Test CRC 466044B9
Copy CRC 466044B9
Track not present in AccurateRip database
Copy OK
None of the tracks are present in the AccurateRip database
No errors occurred
End of status report
==== Log checksum 724B4759B29C420D48A40087861194A1CE498D189DBA9009124312DD4C340421 ====
 
Содержание индексной карты (.CUE)
REM GENRE "Avant-Garde Jazz"
REM DATE 2000
REM DISCID 670C5608
REM COMMENT "ExactAudioCopy v1.0b3"
PERFORMER "Phillip Greenlief & Covered Pages"
TITLE "Russian Notebooks"
FILE "01 - Cathedrals Of Novgorod.wav" WAVE
TRACK 01 AUDIO
TITLE "Cathedrals Of Novgorod"
PERFORMER "Phillip Greenlief & Covered Pages"
INDEX 01 00:00:00
TRACK 02 AUDIO
TITLE "Wherewithal (For Shostokovich)"
PERFORMER "Phillip Greenlief & Covered Pages"
INDEX 00 10:13:46
FILE "02 - Wherewithal (For Shostokovich).wav" WAVE
INDEX 01 00:00:00
TRACK 03 AUDIO
TITLE "Little Vacationing In Chechnaya"
PERFORMER "Phillip Greenlief & Covered Pages"
INDEX 00 04:05:38
FILE "03 - Little Vacationing In Chechnaya.wav" WAVE
INDEX 01 00:00:00
TRACK 04 AUDIO
TITLE "34 Plechanova Ulitza, Kb 7"
PERFORMER "Phillip Greenlief & Covered Pages"
INDEX 00 04:39:20
FILE "04 - 34 Plechanova Ulitza, Kb 7.wav" WAVE
INDEX 01 00:00:00
TRACK 05 AUDIO
TITLE "Portrait Of Anna Ahkmatova"
PERFORMER "Phillip Greenlief & Covered Pages"
INDEX 00 07:35:36
FILE "05 - Portrait Of Anna Ahkmatova.wav" WAVE
INDEX 01 00:00:00
TRACK 06 AUDIO
TITLE "Notebook Fragment For Svetlana Cherkina"
PERFORMER "Phillip Greenlief & Covered Pages"
INDEX 00 13:51:74
FILE "06 - Notebook Fragment For Svetlana Cherkina.wav" WAVE
INDEX 01 00:00:00
TRACK 07 AUDIO
TITLE "Raskolnikov's Attic"
PERFORMER "Phillip Greenlief & Covered Pages"
INDEX 00 02:21:60
FILE "07 - Raskolnikov's Attic.wav" WAVE
INDEX 01 00:00:00
TRACK 08 AUDIO
TITLE "Last Night On The Neva"
PERFORMER "Phillip Greenlief & Covered Pages"
INDEX 00 05:21:28
FILE "08 - Last Night On The Neva.wav" WAVE
INDEX 01 00:00:00
 
Лог проверки качества
d:\>d:\aucdtect -d/-m0 d:\zzz\*.wav
auCDtect: CD records authenticity detector, version 0.8.2
Copyright (c) 2004 Oleg Berngardt. All rights reserved.
Copyright (c) 2004 Alexander Djourik. All rights reserved.
------------------------------------------------------------
Processing file: [01. Cathedrals Of Novgorod.wav]
------------------------------------------------------------
This track looks like CDDA with probability 100%
------------------------------------------------------------
Processing file: [02. Wherewithal (For Shostokovich).wav]
------------------------------------------------------------
This track looks like CDDA with probability 99%
------------------------------------------------------------
Processing file: [03. Little Vacationing In Chechnaya.wav]
------------------------------------------------------------
This track looks like CDDA with probability 100%
------------------------------------------------------------
Processing file: [04. 34 Plechanova Ulitza, Kb 7.wav]
------------------------------------------------------------
This track looks like CDDA with probability 100%
------------------------------------------------------------
Processing file: [05. Portrait Of Anna Ahkmatova.wav]
------------------------------------------------------------
This track looks like CDDA with probability 99%
------------------------------------------------------------
Processing file: [06. Notebook Fragment For Svetlana Cherkina.wav]
------------------------------------------------------------
This track looks like CDDA with probability 100%
------------------------------------------------------------
Processing file: [07. Raskolnikov's Attic.wav]
------------------------------------------------------------
This track looks like CDDA with probability 100%
------------------------------------------------------------
Processing file: [08. Last Night On The Neva.wav]
------------------------------------------------------------
This track looks like CDDA with probability 100%
------------------------------------------------------------
Final Conclusion:
------------------------------------------------------------
These tracks looks like CDDA with probability 100%
Доп. информация:
 
Album Info & Review
8. by Nels Cline, Vinny Golia, Phillip Greenlief & G.E. Stinson
All other compositions by Phillip Greenlief, (C) 2000 Evander's Muse
Recorded 13 & 14 February 1999 by Wayne Peet @ Newzone Studio, Los Angeles
Mixed on 31 March 2000 by Myles Boisen @ Guerilla Euphonics, Oakland
Mastered 26 May 2000 by Myles Boisen @ The Headless Buddha Labs, Oakland
Digital editing @ Canonic Mix on 6. by Myles Boisen & Phillip Greenlief
Collage mix, super genius effects, digital editing & general hysteria on 7. by Myles Boisen
Layout & design by Joseph Candora
Photographs by Phillip Greenlief
Liner notes: Phillip Greenlief - Oakland, California
If you have ever been to Russia, the music Phillip Greenlief conjures will help replicate your experiences. Not the packaged, “See the Hermitage on your left, Winter Palace on you right” kind of tour. But the dyslexic effects of being lost in the darkest cities where you cannot read a street sign to save your life kind of vacation. Greenlief’s stay in St Petersburg in the summer 1998 forms the skeleton of what he describes as psychedelic heavy metal chamber ensemble music. His sketchbook of Russian dreams inspired this two-guitar, two-wind instrument recording.
Greenlief, a Northern California music educator, recorded "collect my thoughts" with Scott Amendola for Nine Winds in 1995. He has since started his own label Evander Music to document new California artists and the many incarnations of his own playing, from the post-bop Trio Putanesca and The Lost Trio to more experimental works with Trevor Dunn and this disc. He is a fine bop tenor saxophonist with an ear for tradition, but a mind for experimentation.
The quartet assembled for Russion Notebooks is guitarists Nels Cline (Nels Cline Trio, Gregg Bendian's Interzone, Mike Watt) and G.E. Stinson (Shadowfax, Wayne Peet) plus reed master Vinny Golia and Greenlief. The notes I made while listening to the tracks reflect the disintegrating moods that materialized during my own visits to St. Petersburg. Greenlief’s score disorients the listener with guitar feedback and metal tastes. The mood is somber like the country. His use of off kilter sound on “Notebook Fragment For Svetlana Cherkina,” creates a sort of film noir sounding piece. While “Little Vacationing In Chechnaya” recreates the machine sounds of war, the guitarists tearing off chunks of buildings, while Golia and Greenlief fire rapidly across the streets. His piece “Wherewithal (for Shostokovich)” has the reeds repeating and biting, biting, biting notes. Golia and Greenlief play some scary free passages here.
But all is not evil in Ronald Reagan’s dreamt empire. The final track, “Last Night On The Neva” evokes the majesty of the once great nation. Greenlief takes a soulful tenor solo that would have made Pushkin cry. As this strange journey ends and we emerge from Russia, the listener may not be sure he/she has been or what the Russian experiment that took up most of the last century has done to its people. - Mark Corroto, All About Jazz
 
Состав
Phillip Greenlief: Bb clarinet, flute, wood flute, trumpet, soprano, alto & tenor saxophones, ray gun
Nels Cline: 6 & 12 string guitars, ray guns, disenfranchised voice
Vinny Golia: Bb & bass clarinets, alto & C flutes, shakuhachi, soprano & baritone saxophones
G.E. Stinson: 6 & 12 string guitars, tool kit, kalimba guitar
PG & NC: left channel
VG & GES: right channel
По всем вопросам пишите личное сообщение пользователю M0p94ok.
09:47
232
Нет комментариев. Ваш будет первым!