Вы используете незарегистрированную версию компонента "Вкладки"!

Поиск

(Free Improvisation, Electroacoustic, GROB) [CD] Jim Denley & Martin Ng - Vergency - 2001, FLAC (tracks+.cue), lossless

(Free Improvisation, Electroacoustic, GROB) [CD] Jim Denley & Martin Ng - Vergency - 2001, FLAC (tracks+.cue), lossless
Треклист:
Jim Denley & Martin Ng / Vergency
Жанр: Free Improvisation, Electroacoustic, GROB
Носитель: CD
Страна-производитель диска (релиза): Germany
Год издания: 2001
Издатель (лейбл): GROB
Номер по каталогу: GROB.322
Страна исполнителя (группы): Australia
Аудиокодек: FLAC (*.flac)
Тип рипа: tracks+.cue
Битрейт аудио: lossless
Продолжительность: 00:49:59
Источник (релизер): свой фирменный диск
Наличие сканов в содержимом раздачи:
Треклист:
1. Blindsight
2. Vergency
3. Flexure
4. Interferon
5. Async_ology
6. Nodes
7. Fireface
8. Ismismiq
9. Counterclockwise
10. Virion Kabbala (F/F Reprise)
11. Gyzym
12. [untitled]
 
Лог создания рипа
Exact Audio Copy V1.0 beta 3 from 29. August 2011
EAC extraction logfile from 29. December 2014, 19:53
Jim Denley & Martin Ng / Vergency
Used drive : PIONEER DVD-RW DVR-115D Adapter: 0 ID: 0
Read mode : Secure
Utilize accurate stream : Yes
Defeat audio cache : Yes
Make use of C2 pointers : No
Read offset correction : 48
Overread into Lead-In and Lead-Out : No
Fill up missing offset samples with silence : Yes
Delete leading and trailing silent blocks : No
Null samples used in CRC calculations : Yes
Used interface : Installed external ASPI interface
Gap handling : Appended to previous track
Used output format : User Defined Encoder
Selected bitrate : 768 kBit/s
Quality : High
Add ID3 tag : No
Command line compressor : C:\Program Files\Exact Audio Copy\Flac\flac.exe
Additional command line options : -6 -V -T "ARTIST=%artist%" -T "TITLE=%title%" -T "ALBUM=%albumtitle%" -T "DATE=%year%" -T "TRACKNUMBER=%tracknr%" -T "GENRE=%genre%" -T "COMMENT=%comment%" -T "BAND=%albuminterpret%" -T "COMPOSER=%composer%" %haslyrics%--tag-from-file=LYRICS="%lyricsfile%"%haslyrics% -T "DISCNUMBER=%cdnumber%" -T "TOTALDISCS=%totalcds%" -T "TOTALTRACKS=%numtracks%" %hascover%--picture="%coverfile%"%hascover% %source% -o %dest%
TOC of the extracted CD
Track | Start | Length | Start sector | End sector
---------------------------------------------------------
1 | 0:00.00 | 1:37.06 | 0 | 7280
2 | 1:37.06 | 12:06.69 | 7281 | 61799
3 | 13:44.00 | 3:40.39 | 61800 | 78338
4 | 17:24.39 | 3:23.40 | 78339 | 93603
5 | 20:48.04 | 3:26.63 | 93604 | 109116
6 | 24:14.67 | 3:30.72 | 109117 | 124938
7 | 27:45.64 | 4:37.15 | 124939 | 145728
8 | 32:23.04 | 2:49.45 | 145729 | 158448
9 | 35:12.49 | 2:15.20 | 158449 | 168593
10 | 37:27.69 | 3:40.35 | 168594 | 185128
11 | 41:08.29 | 0:29.27 | 185129 | 187330
12 | 41:37.56 | 8:21.08 | 187331 | 224913
Track 1
Filename D:\zzz\01 - Blindsight.wav
Pre-gap length 0:00:02.00
Peak level 73.2 %
Extraction speed 3.6 X
Track quality 100.0 %
Test CRC BD902EAA
Copy CRC BD902EAA
Track not present in AccurateRip database
Copy OK
Track 2
Filename D:\zzz\02 - Vergency.wav
Pre-gap length 0:00:02.00
Peak level 98.2 %
Extraction speed 5.5 X
Track quality 100.0 %
Test CRC B52EB641
Copy CRC B52EB641
Track not present in AccurateRip database
Copy OK
Track 3
Filename D:\zzz\03 - Flexure.wav
Pre-gap length 0:00:04.00
Peak level 100.0 %
Extraction speed 5.7 X
Track quality 100.0 %
Test CRC 064A7528
Copy CRC 064A7528
Track not present in AccurateRip database
Copy OK
Track 4
Filename D:\zzz\04 - Interferon.wav
Pre-gap length 0:00:04.00
Peak level 100.0 %
Extraction speed 5.1 X
Track quality 99.9 %
Test CRC B46113CE
Copy CRC B46113CE
Track not present in AccurateRip database
Copy OK
Track 5
Filename D:\zzz\05 - Async_ology.wav
Pre-gap length 0:00:04.00
Peak level 100.0 %
Extraction speed 5.4 X
Track quality 99.9 %
Test CRC FA93B759
Copy CRC FA93B759
Track not present in AccurateRip database
Copy OK
Track 6
Filename D:\zzz\06 - Nodes.wav
Pre-gap length 0:00:04.00
Peak level 93.1 %
Extraction speed 6.4 X
Track quality 100.0 %
Test CRC CBBEDE7C
Copy CRC CBBEDE7C
Track not present in AccurateRip database
Copy OK
Track 7
Filename D:\zzz\07 - Fireface.wav
Pre-gap length 0:00:04.00
Peak level 98.2 %
Extraction speed 6.2 X
Track quality 99.9 %
Test CRC 9F20EAD7
Copy CRC 9F20EAD7
Track not present in AccurateRip database
Copy OK
Track 8
Filename D:\zzz\08 - Ismismiq.wav
Pre-gap length 0:00:04.00
Peak level 93.1 %
Extraction speed 6.6 X
Track quality 100.0 %
Test CRC ACF9CD10
Copy CRC ACF9CD10
Track not present in AccurateRip database
Copy OK
Track 9
Filename D:\zzz\09 - Counterclockwise.wav
Pre-gap length 0:00:02.00
Peak level 93.1 %
Extraction speed 6.4 X
Track quality 100.0 %
Test CRC B9FB7315
Copy CRC B9FB7315
Track not present in AccurateRip database
Copy OK
Track 10
Filename D:\zzz\10 - Virion Kabbala (F,F Reprise).wav
Pre-gap length 0:00:02.00
Peak level 93.1 %
Extraction speed 7.2 X
Track quality 100.0 %
Test CRC FD551013
Copy CRC FD551013
Track not present in AccurateRip database
Copy OK
Track 11
Filename D:\zzz\11 - Gyzym.wav
Pre-gap length 0:00:08.00
Peak level 93.1 %
Extraction speed 3.8 X
Track quality 100.0 %
Test CRC 8FF1DE23
Copy CRC 8FF1DE23
Track not present in AccurateRip database
Copy OK
Track 12
Filename D:\zzz\12 - untitled.wav
Pre-gap length 0:00:02.00
Peak level 93.1 %
Extraction speed 8.2 X
Track quality 100.0 %
Test CRC 0C5C6CB2
Copy CRC 0C5C6CB2
Track not present in AccurateRip database
Copy OK
None of the tracks are present in the AccurateRip database
No errors occurred
End of status report
==== Log checksum 3D78FB148CAF990D989DF15E47AA2CBE7E4F937B7A36B9076E12585A872A6A47 ====
 
Содержание индексной карты (.CUE)
REM GENRE "Electroacoustic Improvisation"
REM DATE 2001
REM DISCID AC0BB60C
REM COMMENT "ExactAudioCopy v1.0b3"
PERFORMER "Jim Denley & Martin Ng"
TITLE "Vergency"
FILE "01 - Blindsight.wav" WAVE
TRACK 01 AUDIO
TITLE "Blindsight"
PERFORMER "Jim Denley & Martin Ng"
INDEX 01 00:00:00
TRACK 02 AUDIO
TITLE "Vergency"
PERFORMER "Jim Denley & Martin Ng"
INDEX 00 01:35:06
FILE "02 - Vergency.wav" WAVE
INDEX 01 00:00:00
TRACK 03 AUDIO
TITLE "Flexure"
PERFORMER "Jim Denley & Martin Ng"
INDEX 00 12:02:69
FILE "03 - Flexure.wav" WAVE
INDEX 01 00:00:00
TRACK 04 AUDIO
TITLE "Interferon"
PERFORMER "Jim Denley & Martin Ng"
INDEX 00 03:36:39
FILE "04 - Interferon.wav" WAVE
INDEX 01 00:00:00
TRACK 05 AUDIO
TITLE "Async_ology"
PERFORMER "Jim Denley & Martin Ng"
INDEX 00 03:19:40
FILE "05 - Async_ology.wav" WAVE
INDEX 01 00:00:00
TRACK 06 AUDIO
TITLE "Nodes"
PERFORMER "Jim Denley & Martin Ng"
INDEX 00 03:22:63
FILE "06 - Nodes.wav" WAVE
INDEX 01 00:00:00
TRACK 07 AUDIO
TITLE "Fireface"
PERFORMER "Jim Denley & Martin Ng"
INDEX 00 03:26:72
FILE "07 - Fireface.wav" WAVE
INDEX 01 00:00:00
TRACK 08 AUDIO
TITLE "Ismismiq"
PERFORMER "Jim Denley & Martin Ng"
INDEX 00 04:33:15
FILE "08 - Ismismiq.wav" WAVE
INDEX 01 00:00:00
TRACK 09 AUDIO
TITLE "Counterclockwise"
PERFORMER "Jim Denley & Martin Ng"
INDEX 00 02:47:45
FILE "09 - Counterclockwise.wav" WAVE
INDEX 01 00:00:00
TRACK 10 AUDIO
TITLE "Virion Kabbala (F/F Reprise)"
PERFORMER "Jim Denley & Martin Ng"
INDEX 00 02:13:20
FILE "10 - Virion Kabbala (F,F Reprise).wav" WAVE
INDEX 01 00:00:00
TRACK 11 AUDIO
TITLE "Gyzym"
PERFORMER "Jim Denley & Martin Ng"
INDEX 00 03:32:35
FILE "11 - Gyzym.wav" WAVE
INDEX 01 00:00:00
TRACK 12 AUDIO
TITLE "untitled"
PERFORMER "Jim Denley & Martin Ng"
INDEX 00 00:27:27
FILE "12 - untitled.wav" WAVE
INDEX 01 00:00:00
 
Лог проверки качества
d:\>d:\aucdtect -d/-m0 d:\zzz\*.wav
auCDtect: CD records authenticity detector, version 0.8.2
Copyright (c) 2004 Oleg Berngardt. All rights reserved.
Copyright (c) 2004 Alexander Djourik. All rights reserved.
------------------------------------------------------------
Processing file: [01. Blindsight.wav]
------------------------------------------------------------
This track looks like CDDA with probability 99%
------------------------------------------------------------
Processing file: [02. Vergency.wav]
------------------------------------------------------------
This track looks like CDDA with probability 100%
------------------------------------------------------------
Processing file: [03. Flexure.wav]
------------------------------------------------------------
This track looks like CDDA with probability 99%
------------------------------------------------------------
Processing file: [04. Interferon.wav]
------------------------------------------------------------
This track looks like CDDA with probability 100%
------------------------------------------------------------
Processing file: [05. Async_ology.wav]
------------------------------------------------------------
This track looks like CDDA with probability 100%
------------------------------------------------------------
Processing file: [06. Nodes.wav]
------------------------------------------------------------
This track looks like CDDA with probability 100%
------------------------------------------------------------
Processing file: [07. Fireface.wav]
------------------------------------------------------------
This track looks like CDDA with probability 100%
------------------------------------------------------------
Processing file: [08. Ismismiq.wav]
------------------------------------------------------------
This track looks like CDDA with probability 100%
------------------------------------------------------------
Processing file: [09. Counterclockwise.wav]
------------------------------------------------------------
This track looks like CDDA with probability 100%
------------------------------------------------------------
Processing file: [10. Virion Kabbala (F-F Reprise).wav]
------------------------------------------------------------
This track looks like CDDA with probability 100%
------------------------------------------------------------
Processing file: [11. Gyzym.wav]
------------------------------------------------------------
This track looks like CDDA with probability 100%
------------------------------------------------------------
Processing file: [12. untitled.wav]
------------------------------------------------------------
This track looks like CDDA with probability 100%
------------------------------------------------------------
Final Conclusion:
------------------------------------------------------------
These tracks looks like CDDA with probability 100%
Доп. информация:
 
Album Info & AMG Review
All tracks by Denley + Ng
Tracks 2,4,5,9 and 11 recorded in concert at the Studio Soh, Sydney, May 29, 1999
Tracks 3,7 and 8 recorded in concert at Revolver, Melbourne, February 2, 2000
Tracks 1,6 and 10 recorded at Araca Azul, Sydney, April 2000
Mastered by Chris Townend at Big Jesus Burger and by Denley + Ng at Araca Azul
Produced by Denley + Ng
Produced for GROB by Felix Klopotek
Photos: Heidrun Lohr
Font: LUSTBlowout
Designed by LUST / Thomas Castro
Design: Sandra Renz
Flutist/saxophonist Jim Denley and turntablist/noise maker Martin Ng make a strange pair. Their music follows the path of avant-gardist deconstruction and free improv interaction, yet the results are anything but expected. Ng's sped-up records, deeply altered grooves, and skipping CDs are reminiscent of Erik M and Martin Tetreault's art, except for the fact that he cares less about textural environments. Ng attacks, he sends a salve of needle skids, popping, and cut-up sounds which Denley tries to match, something that is not the easiest thing to do. The fact that he uses free jazz records as part of his arsenal doesn't help his partner's job -- he also has to compete against (compose with) mutilated sax solos. Which horn is "real"? Does it matter? The opening track, "Blindsight," starts with what sounds like a saxophone solo slowed down to a crawl. Ng expertly creates a melody from these vinyl manipulations, but where is Denley? Is he responsible for that flute-breathing sound? The listener can have a lot of fun trying to determine who does what. It only goes to Denley's credit that he can blend in so perfectly. Other tracks stick closer to the usual duet format, especially "Flexure," where one can appreciate the uniqueness of the saxophonist's vocabulary (somewhere between Evan Parker and John Butcher, although not quite one or the other). Vergency is a difficult record (Ng's brutal attacks and racing needles can unnerve), but its rewards compensate the effort. - Francois Couture, AMG
 
Состав
Jim Denley: wind instruments
Martin Ng: turntables and CD player
По всем вопросам пишите личное сообщение пользователю M0p94ok.
09:48
163
Нет комментариев. Ваш будет первым!