Поиск

(Free Improvisation / Avant-Garde Jazz) [CD] Rodrigo Amado Motion Trio & Peter Evans (Miguel Mira, Gabriel Ferrandini) - The Freedom Principle - 2014 [NoBusiness Records NBCD 67], FLAC (tracks+.cue), lossless

(Free Improvisation / Avant-Garde Jazz) [CD] Rodrigo Amado Motion Trio & Peter Evans (Miguel Mira, Gabriel Ferrandini) - The Freedom Principle - 2014 [NoBusiness Records NBCD 67], FLAC (tracks+.cue), lossless
Rodrigo Amado Motion Trio & Peter Evans - The Freedom Principle
Жанр: Free Improvisation / Avant-Garde Jazz
Носитель: CD
Страна-производитель диска: Lithuania
Год издания: 2014
Издатель (лейбл): NoBusiness Records
Номер по каталогу: NBCD 67
Аудиокодек: FLAC (*.flac)
Тип рипа: tracks+.cue
Битрейт аудио: lossless
Продолжительность: 00:57:15
Источник (релизер): nnm, Джаз Клуб, 27 мая, 2014 / спасибо mishka1981
Наличие сканов в содержимом раздачи: да
Треклист:
1. The Freedom Principle (26:46)
2. Shadows (18:38)
3. Pepper Packed (12:03)
All compositions by Amado / Evans / Mira / Ferrandini
Доп. информация:
Musicians:
Rodrigo Amado - tenor saxophone
Peter Evans - trumpet
Miguel Mira - cello
Gabriel Ferrandini - drums
Recorded by Joaquim Monte at Namouche Studios, Lisbon, March 18th, 2013
© 2014, NoBusiness Records
Rodrigo Amado Motion Trio & Peter Evans - The Freedom Principle nobusinessrecords.com
Rodrigo Amado Official Site
Rodrigo Amado from Wikipedia, the free encyclopedia
Peter Evans from Wikipedia, the free encyclopedia
 
... back ...
 
... photo ...

 
Лог создания рипа
Exact Audio Copy V1.0 beta 1 from 15. November 2010
EAC extraction logfile from 27. May 2014, 19:43
Rodrigo Amado Motion Trio (Miguel Mira, Gabriel Ferrandini) & Peter Evans / The Freedom Principle
Used drive : Optiarc DVD RW AD-7710H Adapter: 1 ID: 0
Read mode : Secure
Utilize accurate stream : Yes
Defeat audio cache : Yes
Make use of C2 pointers : No
Read offset correction : 48
Overread into Lead-In and Lead-Out : No
Fill up missing offset samples with silence : Yes
Delete leading and trailing silent blocks : No
Null samples used in CRC calculations : Yes
Used interface : Native Win32 interface for Win NT & 2000
Gap handling : Appended to previous track
Used output format : User Defined Encoder
Selected bitrate : 896 kBit/s
Quality : High
Add ID3 tag : No
Command line compressor : C:\Program Files\Exact Audio Copy\FLAC\FLAC.EXE
Additional command line options : -8 -V -T "ARTIST=%a" -T "TITLE=%t" -T "ALBUM=%g" -T "DATE=%y" -T "TRACKNUMBER=%n" -T "GENRE=%m" -T "COMMENT=%e" %j--picture="%i"%j %s -o %d
TOC of the extracted CD
Track | Start | Length | Start sector | End sector
---------------------------------------------------------
1 | 0:00.00 | 26:47.29 | 0 | 120553
2 | 26:47.29 | 18:39.55 | 120554 | 204533
3 | 45:27.09 | 11:54.10 | 204534 | 258093
Track 1
Filename C:\MY RIPS\01 - The Freedom Principle.wav
Pre-gap length 0:00:02.00
Peak level 96.6 %
Extraction speed 4.0 X
Track quality 100.0 %
Test CRC 270D8CC2
Copy CRC 270D8CC2
Track not present in AccurateRip database
Copy OK
Track 2
Filename C:\MY RIPS\02 - Shadows.wav
Pre-gap length 0:00:03.00
Peak level 96.6 %
Extraction speed 5.1 X
Track quality 99.9 %
Test CRC 2EF13848
Copy CRC 2EF13848
Track not present in AccurateRip database
Copy OK
Track 3
Filename C:\MY RIPS\03 - Peppr Packed.wav
Pre-gap length 0:00:03.00
Peak level 96.6 %
Extraction speed 6.0 X
Track quality 100.0 %
Test CRC 780515C6
Copy CRC 780515C6
Track not present in AccurateRip database
Copy OK
None of the tracks are present in the AccurateRip database
No errors occurred
End of status report
==== Log checksum 63B88B9BCE3AA639548D5F77049846B84A9402794AC2D494C5E6F991D6E5E712 ====
 
Содержание индексной карты (.CUE)
REM GENRE Jazz
REM DATE 2014
REM DISCID 260D7103
REM COMMENT "ExactAudioCopy v1.0b1"
PERFORMER "Rodrigo Amado Motion Trio (Miguel Mira, Gabriel Ferrandini) & Peter Evans"
TITLE "The Freedom Principle"
FILE "01 - The Freedom Principle.wav" WAVE
TRACK 01 AUDIO
TITLE "The Freedom Principle"
PERFORMER "Rodrigo Amado Motion Trio (Miguel Mira, Gabriel Ferrandini) & Peter Evans"
INDEX 01 00:00:00
TRACK 02 AUDIO
TITLE "Shadows"
PERFORMER "Rodrigo Amado Motion Trio (Miguel Mira, Gabriel Ferrandini) & Peter Evans"
INDEX 00 26:44:29
FILE "02 - Shadows.wav" WAVE
INDEX 01 00:00:00
TRACK 03 AUDIO
TITLE "Peppr Packed"
PERFORMER "Rodrigo Amado Motion Trio (Miguel Mira, Gabriel Ferrandini) & Peter Evans"
INDEX 00 18:36:55
FILE "03 - Peppr Packed.wav" WAVE
INDEX 01 00:00:00
 
auCDtect Task Manager
-----------------------
DON'T MODIFY THIS FILE
-----------------------
PERFORMER: auCDtect Task Manager, ver. 1.5.1RC6 build 1.5.1.7
Copyright (c) 2008-2010 y-soft. All rights reserved
http://y-soft.org
ANALYZER: auCDtect: CD records authenticity detector, version 0.8.2
Copyright (c) 2004 Oleg Berngardt. All rights reserved.
Copyright (c) 2004 Alexander Djourik. All rights reserved.
FILE: 03 - Peppr Packed.flac
Size: 73005697 Hash: C4FB9A2BEB7D25BD5E2BF36D063CBA86 Accuracy: -m0
Conclusion: CDDA 100%
Signature: E5A264DF8F3CB96272121D0575B8EB4A56D06C40
FILE: 02 - Shadows.flac
Size: 126148626 Hash: A2A621816F60A27ACB14E307DF35E529 Accuracy: -m0
Conclusion: CDDA 100%
Signature: 307FBE8ECFEF4836AC608CBB4405B05B88174079
FILE: 01 - The Freedom Principle.flac
Size: 192364906 Hash: 10CA73F72B112385F9B7C68B4DA7D739 Accuracy: -m0
Conclusion: CDDA 100%
Signature: DAC293C98932F8293C9ED3249F239B665FE94D52
02:21
325
Нет комментариев. Ваш будет первым!