Вы используете незарегистрированную версию компонента "Вкладки"!

Поиск

(Free Improvisation / Avant-Garde Jazz) [CD] Frode Gjerstad / Paal Nilssen-Love Project (Sabir Mateen, Peter Fris-Nielsen) - Hasselt - 2014, rec. 2006 [Not Two Records MW 909-2], FLAC (tracks+.cue), lossless

(Free Improvisation / Avant-Garde Jazz) [CD] Frode Gjerstad / Paal Nilssen-Love Project (Sabir Mateen, Peter Fris-Nielsen) - Hasselt - 2014, rec. 2006 [Not Two Records MW 909-2], FLAC (tracks+.cue), lossless
Треклист:
Frode Gjerstad / Paal Nilssen-Love Project - Hasselt
Жанр: Free Improvisation / Avant-Garde Jazz
Носитель: CD
Страна-производитель диска: Poland
Год издания: 2014
Год записи: 2006
Издатель (лейбл): Not Two Records
Номер по каталогу: MW 909-2
Аудиокодек: FLAC (*.flac)
Тип рипа: tracks+.cue
Битрейт аудио: lossless
Продолжительность: 00:58:34
Источник (релизер): nnm, Джаз Клуб, 5 мая, 2014 / спасибо mishka1981
Наличие сканов в содержимом раздачи: да
Треклист:
1. Hasselt #1 (16:32)
2. Hasselt #2 (07:57)
3. Hasselt #3 (10:24)
4. Hasselt #4 (13:39)
5. Hasselt #5 (09:59)
Доп. информация:
Musicians:
Frode Gjerstad - alto saxophone, bb and bass clarinets
Sabir Mateen - tenor saxophone, flute & clarinet
Peter Fris-Nielsen - electric bass
Paal Nilssen-Love - drums
Recorded live at Kunstcentrum Belgie, Hasselt, Belgium, September 2006
Recorded, mixed and mastered by Frode Gjerstad
Frode Gjerstad / Paal Nilssen Love Project - Hasselt nottwo.com
Frode Gjerstad Official Site
Paal Nilssen-Love Official Site
Paal Nilssen-Love from Wikipedia, the free encyclopedia
 
... back ...
 
... photo ...
 
Лог создания рипа
Exact Audio Copy V1.0 beta 1 from 15. November 2010
EAC extraction logfile from 5. May 2014, 15:32
Frode Gjerstad\Paal Nilssen-Love project / Hasselt
Used drive : Optiarc DVD RW AD-7710H Adapter: 1 ID: 0
Read mode : Secure
Utilize accurate stream : Yes
Defeat audio cache : Yes
Make use of C2 pointers : No
Read offset correction : 48
Overread into Lead-In and Lead-Out : No
Fill up missing offset samples with silence : Yes
Delete leading and trailing silent blocks : No
Null samples used in CRC calculations : Yes
Used interface : Native Win32 interface for Win NT & 2000
Gap handling : Appended to previous track
Used output format : User Defined Encoder
Selected bitrate : 896 kBit/s
Quality : High
Add ID3 tag : No
Command line compressor : C:\Program Files\Exact Audio Copy\FLAC\FLAC.EXE
Additional command line options : -8 -V -T "ARTIST=%a" -T "TITLE=%t" -T "ALBUM=%g" -T "DATE=%y" -T "TRACKNUMBER=%n" -T "GENRE=%m" -T "COMMENT=%e" %j--picture="%i"%j %s -o %d
TOC of the extracted CD
Track | Start | Length | Start sector | End sector
---------------------------------------------------------
1 | 0:00.00 | 16:32.22 | 0 | 74421
2 | 16:32.22 | 7:57.00 | 74422 | 110196
3 | 24:29.22 | 10:24.46 | 110197 | 157042
4 | 34:53.68 | 13:39.20 | 157043 | 218487
5 | 48:33.13 | 9:59.17 | 218488 | 263429
Track 1
Filename C:\MY RIPS\01 - 1.wav
Pre-gap length 0:00:02.00
Peak level 94.4 %
Extraction speed 3.7 X
Track quality 100.0 %
Test CRC B23E731D
Copy CRC B23E731D
Track not present in AccurateRip database
Copy OK
Track 2
Filename C:\MY RIPS\02 - 2.wav
Peak level 94.4 %
Extraction speed 4.4 X
Track quality 100.0 %
Test CRC 2142BEFA
Copy CRC 2142BEFA
Track not present in AccurateRip database
Copy OK
Track 3
Filename C:\MY RIPS\03 - 3.wav
Peak level 94.4 %
Extraction speed 4.5 X
Track quality 99.9 %
Test CRC 5FF6D721
Copy CRC 5FF6D721
Track not present in AccurateRip database
Copy OK
Track 4
Filename C:\MY RIPS\04 - 4.wav
Peak level 94.4 %
Extraction speed 5.6 X
Track quality 100.0 %
Test CRC 83C46856
Copy CRC 83C46856
Track not present in AccurateRip database
Copy OK
Track 5
Filename C:\MY RIPS\05 - 5.wav
Peak level 94.4 %
Extraction speed 6.0 X
Track quality 100.0 %
Test CRC 816C12DE
Copy CRC 816C12DE
Track not present in AccurateRip database
Copy OK
None of the tracks are present in the AccurateRip database
No errors occurred
End of status report
==== Log checksum 49A5FC7B8F482AF5DA1212437DB89B2DED12EBB350949268DEB862EEF53DA6E0 ====
 
Содержание индексной карты (.CUE)
REM DISCID 460DB805
REM COMMENT "ExactAudioCopy v1.0b1"
PERFORMER "Frode Gjerstad\Paal Nilssen-Love project"
TITLE "Hasselt"
FILE "01 - 1.wav" WAVE
TRACK 01 AUDIO
TITLE "1"
PERFORMER "Frode Gjerstad\Paal Nilssen-Love project"
INDEX 01 00:00:00
FILE "02 - 2.wav" WAVE
TRACK 02 AUDIO
TITLE "2"
PERFORMER "Frode Gjerstad\Paal Nilssen-Love project"
INDEX 01 00:00:00
FILE "03 - 3.wav" WAVE
TRACK 03 AUDIO
TITLE "3"
PERFORMER "Frode Gjerstad\Paal Nilssen-Love project"
INDEX 01 00:00:00
FILE "04 - 4.wav" WAVE
TRACK 04 AUDIO
TITLE "4"
PERFORMER "Frode Gjerstad\Paal Nilssen-Love project"
INDEX 01 00:00:00
FILE "05 - 5.wav" WAVE
TRACK 05 AUDIO
TITLE "5"
PERFORMER "Frode Gjerstad\Paal Nilssen-Love project"
INDEX 01 00:00:00
 
auCDtect Task Manager
-----------------------
DON'T MODIFY THIS FILE
-----------------------
PERFORMER: auCDtect Task Manager, ver. 1.5.1RC6 build 1.5.1.7
Copyright (c) 2008-2010 y-soft. All rights reserved
http://y-soft.org
ANALYZER: auCDtect: CD records authenticity detector, version 0.8.2
Copyright (c) 2004 Oleg Berngardt. All rights reserved.
Copyright (c) 2004 Alexander Djourik. All rights reserved.
FILE: 05 - 5.flac
Size: 72097348 Hash: 15E3F15745A64940297890192A63175F Accuracy: -m0
Conclusion: CDDA 100%
Signature: B2723AFA6078E6C27B11B794A9087EE11646E99E
FILE: 04 - 4.flac
Size: 93105383 Hash: 543E66362A1F88DB9B98CB5BEC358345 Accuracy: -m0
Conclusion: CDDA 100%
Signature: CAC75B0215868BA2B6D844FFF0EDAA956CAB090D
FILE: 03 - 3.flac
Size: 64474006 Hash: 5696C9250C46FB7D161AF86B0E867D14 Accuracy: -m0
Conclusion: CDDA 100%
Signature: 5DEA35AEF22A2E4C41031CB8A50D9F98569A4391
FILE: 02 - 2.flac
Size: 46315818 Hash: 9C90A9EB43A22AEB05899F069CC3115A Accuracy: -m0
Conclusion: CDDA 100%
Signature: 2500ED60E76C4B48055EFB70AF8F275529917D8B
FILE: 01 - 1.flac
Size: 126627476 Hash: 6F49E8045425A1D115C7AD1B7A140592 Accuracy: -m0
Conclusion: CDDA 100%
Signature: 4099E27F19484F4207CDEDFA161C16E6970587C6
... релизы с участием FRODE GJERSTAD на трекере ...
По всем вопросам пишите личное сообщение пользователю M0p94ok.
02:22
155
Нет комментариев. Ваш будет первым!