Вы используете незарегистрированную версию компонента "Вкладки"!

Поиск

(Avant-Garde Jazz, Modern Composition) [CD] SFQ (Simon H. Fell, Gail Brand, Alex Ward, Alex Maguire, Steve Noble) - Thirteen Rectangles - 2002, FLAC (tracks+.cue), lossless

(Avant-Garde Jazz, Modern Composition) [CD] SFQ (Simon H. Fell, Gail Brand, Alex Ward, Alex Maguire, Steve Noble) - Thirteen Rectangles - 2002, FLAC (tracks+.cue), lossless
Треклист:
SFQ / Thirteen Rectangles
Жанр: Avant-Garde Jazz, Modern Composition
Носитель: CD
Страна-производитель диска: UK
Год издания: 2002
Издатель (лейбл): Bruce's Fingers
Номер по каталогу: BF 43
Страна: UK
Аудиокодек: FLAC (*.flac)
Тип рипа: tracks+.cue
Битрейт аудио: lossless
Продолжительность: 70:28
Источник (релизер): свой фирменный диск
Наличие сканов в содержимом раздачи:
Треклист:
1. Start Frame + Soft Hard (Interpolation 1) 4:05
2. Rectangle 1 1:35
3. Rectangle 2 5:21
4. Rectangle 3 6:28
5. Rectangles 4 & 5 2:23
6. Rectangle 6 8:21
7. Rectangle 7 5:19
8. Soft Hard (Interpolation 2) 4:32
9. Rectangle 8 2:36
10. Rectangle 9 6:56
11. Rectangle 10 9:15
12. Rectangles 11 & 12 3:16
13. Rectangle 13 7:19
14. Soft Hard (Interpolation 3) + End Frame 2:55
 
Лог создания рипа
Exact Audio Copy V1.0 beta 3 from 29. August 2011
EAC extraction logfile from 16. April 2014, 21:04
SFQ / Thirteen Rectangles
Used drive : PIONEER DVD-RW DVR-115D Adapter: 0 ID: 0
Read mode : Secure
Utilize accurate stream : Yes
Defeat audio cache : Yes
Make use of C2 pointers : No
Read offset correction : 48
Overread into Lead-In and Lead-Out : No
Fill up missing offset samples with silence : Yes
Delete leading and trailing silent blocks : No
Null samples used in CRC calculations : Yes
Used interface : Installed external ASPI interface
Gap handling : Appended to previous track
Used output format : User Defined Encoder
Selected bitrate : 896 kBit/s
Quality : High
Add ID3 tag : No
Command line compressor : C:\Program Files\Exact Audio Copy\FLAC\FLAC.EXE
Additional command line options : -6 -V -T "ARTIST=%artist%" -T "TITLE=%title%" -T "ALBUM=%albumtitle%" -T "DATE=%year%" -T "TRACKNUMBER=%tracknr%" -T "GENRE=%genre%" -T "COMMENT=%comment%" -T "BAND=%albuminterpret%" -T "COMPOSER=%composer%" %haslyrics%--tag-from-file=LYRICS="%lyricsfile%"%haslyrics% -T "DISCNUMBER=%cdnumber%" -T "TOTALDISCS=%totalcds%" -T "TOTALTRACKS=%numtracks%" %hascover%--picture="%coverfile%"%hascover% %source% -o %dest%
TOC of the extracted CD
Track | Start | Length | Start sector | End sector
---------------------------------------------------------
1 | 0:00.00 | 4:05.40 | 0 | 18414
2 | 4:05.40 | 1:35.44 | 18415 | 25583
3 | 5:41.09 | 5:21.32 | 25584 | 49690
4 | 11:02.41 | 6:28.57 | 49691 | 78847
5 | 17:31.23 | 2:23.67 | 78848 | 89639
6 | 19:55.15 | 8:21.13 | 89640 | 127227
7 | 28:16.28 | 5:19.17 | 127228 | 151169
8 | 33:35.45 | 4:32.34 | 151170 | 171603
9 | 38:08.04 | 2:36.66 | 171604 | 183369
10 | 40:44.70 | 6:56.59 | 183370 | 214628
11 | 47:41.54 | 9:15.27 | 214629 | 256280
12 | 56:57.06 | 3:16.21 | 256281 | 271001
13 | 60:13.27 | 7:19.21 | 271002 | 303947
14 | 67:32.48 | 2:55.70 | 303948 | 317142
Track 1
Filename D:\zzz\01 - Start Frame + Soft Hard (Interpolation 1).wav
Pre-gap length 0:00:02.00
Peak level 100.0 %
Extraction speed 4.6 X
Track quality 100.0 %
Test CRC 11F50B1E
Copy CRC 11F50B1E
Accurately ripped (confidence 1) [280D6C94] (AR v1)
Copy OK
Track 2
Filename D:\zzz\02 - Rectangle 1.wav
Peak level 43.8 %
Extraction speed 3.2 X
Track quality 99.8 %
Test CRC 3770B7A8
Copy CRC 3770B7A8
Accurately ripped (confidence 1) [94277A89] (AR v1)
Copy OK
Track 3
Filename D:\zzz\03 - Rectangle 2.wav
Peak level 100.0 %
Extraction speed 5.4 X
Track quality 100.0 %
Test CRC 99565DCB
Copy CRC 99565DCB
Accurately ripped (confidence 1) [10639D0C] (AR v1)
Copy OK
Track 4
Filename D:\zzz\04 - Rectangle 3.wav
Peak level 42.6 %
Extraction speed 5.6 X
Track quality 99.9 %
Test CRC A2C4CD1E
Copy CRC A2C4CD1E
Accurately ripped (confidence 1) [DCD9BE08] (AR v1)
Copy OK
Track 5
Filename D:\zzz\05 - Rectangles 4 & 5.wav
Peak level 74.2 %
Extraction speed 5.6 X
Track quality 100.0 %
Test CRC CC2F3D68
Copy CRC CC2F3D68
Accurately ripped (confidence 1) [D2668A81] (AR v1)
Copy OK
Track 6
Filename D:\zzz\06 - Rectangle 6.wav
Peak level 93.3 %
Extraction speed 7.0 X
Track quality 100.0 %
Test CRC 15AD1CAE
Copy CRC 15AD1CAE
Accurately ripped (confidence 1) [19DA4961] (AR v1)
Copy OK
Track 7
Filename D:\zzz\07 - Rectangle 7.wav
Peak level 81.5 %
Extraction speed 7.2 X
Track quality 100.0 %
Test CRC 58D0C869
Copy CRC 58D0C869
Accurately ripped (confidence 1) [C81171C5] (AR v1)
Copy OK
Track 8
Filename D:\zzz\08 - Soft Hard (Interpolation 2).wav
Peak level 53.7 %
Extraction speed 7.5 X
Track quality 100.0 %
Test CRC 6F795CF2
Copy CRC 6F795CF2
Accurately ripped (confidence 1) [F79100D0] (AR v1)
Copy OK
Track 9
Filename D:\zzz\09 - Rectangle 8.wav
Peak level 98.1 %
Extraction speed 7.0 X
Track quality 100.0 %
Test CRC BB918089
Copy CRC BB918089
Accurately ripped (confidence 1) [CD82DF08] (AR v1)
Copy OK
Track 10
Filename D:\zzz\10 - Rectangle 9.wav
Peak level 100.0 %
Extraction speed 8.2 X
Track quality 100.0 %
Test CRC F646D552
Copy CRC F646D552
Accurately ripped (confidence 1) [B4AA57DE] (AR v1)
Copy OK
Track 11
Filename D:\zzz\11 - Rectangle 10.wav
Peak level 48.1 %
Extraction speed 8.9 X
Track quality 100.0 %
Test CRC CC7CCCD9
Copy CRC CC7CCCD9
Accurately ripped (confidence 1) [A2D7BD9D] (AR v1)
Copy OK
Track 12
Filename D:\zzz\12 - Rectangles 11 & 12.wav
Peak level 66.1 %
Extraction speed 8.3 X
Track quality 100.0 %
Test CRC F9B56AAE
Copy CRC F9B56AAE
Accurately ripped (confidence 1) [AD8A8066] (AR v1)
Copy OK
Track 13
Filename D:\zzz\13 - Rectangle 13.wav
Peak level 100.0 %
Extraction speed 9.3 X
Track quality 100.0 %
Test CRC E237B383
Copy CRC E237B383
Accurately ripped (confidence 1) [163CD2F6] (AR v1)
Copy OK
Track 14
Filename D:\zzz\14 - Soft Hard (Interpolation 3) + End Frame.wav
Peak level 90.3 %
Extraction speed 7.3 X
Track quality 99.9 %
Test CRC 3FDE07F1
Copy CRC 3FDE07F1
Accurately ripped (confidence 1) [310D8E4B] (AR v1)
Copy OK
All tracks accurately ripped
No errors occurred
End of status report
==== Log checksum CF98AE1B172C060A5CD0F9D10232DEB18F8CA47276BA9E87744EE05DC749CEE3 ====
 
Содержание индексной карты (.CUE)
REM GENRE "Avant-Garde Jazz"
REM DATE 2002
REM DISCID C310840E
REM COMMENT "ExactAudioCopy v1.0b3"
PERFORMER "SFQ"
TITLE "Thirteen Rectangles"
FILE "01 - Start Frame + Soft Hard (Interpolation 1).wav" WAVE
TRACK 01 AUDIO
TITLE "Start Frame + Soft Hard (Interpolation 1)"
PERFORMER "SFQ"
INDEX 01 00:00:00
FILE "02 - Rectangle 1.wav" WAVE
TRACK 02 AUDIO
TITLE "Rectangle 1"
PERFORMER "SFQ"
INDEX 01 00:00:00
FILE "03 - Rectangle 2.wav" WAVE
TRACK 03 AUDIO
TITLE "Rectangle 2"
PERFORMER "SFQ"
INDEX 01 00:00:00
FILE "04 - Rectangle 3.wav" WAVE
TRACK 04 AUDIO
TITLE "Rectangle 3"
PERFORMER "SFQ"
INDEX 01 00:00:00
FILE "05 - Rectangles 4 & 5.wav" WAVE
TRACK 05 AUDIO
TITLE "Rectangles 4 & 5"
PERFORMER "SFQ"
INDEX 01 00:00:00
FILE "06 - Rectangle 6.wav" WAVE
TRACK 06 AUDIO
TITLE "Rectangle 6"
PERFORMER "SFQ"
INDEX 01 00:00:00
FILE "07 - Rectangle 7.wav" WAVE
TRACK 07 AUDIO
TITLE "Rectangle 7"
PERFORMER "SFQ"
INDEX 01 00:00:00
FILE "08 - Soft Hard (Interpolation 2).wav" WAVE
TRACK 08 AUDIO
TITLE "Soft Hard (Interpolation 2)"
PERFORMER "SFQ"
INDEX 01 00:00:00
FILE "09 - Rectangle 8.wav" WAVE
TRACK 09 AUDIO
TITLE "Rectangle 8"
PERFORMER "SFQ"
INDEX 01 00:00:00
FILE "10 - Rectangle 9.wav" WAVE
TRACK 10 AUDIO
TITLE "Rectangle 9"
PERFORMER "SFQ"
INDEX 01 00:00:00
FILE "11 - Rectangle 10.wav" WAVE
TRACK 11 AUDIO
TITLE "Rectangle 10"
PERFORMER "SFQ"
INDEX 01 00:00:00
FILE "12 - Rectangles 11 & 12.wav" WAVE
TRACK 12 AUDIO
TITLE "Rectangles 11 & 12"
PERFORMER "SFQ"
INDEX 01 00:00:00
FILE "13 - Rectangle 13.wav" WAVE
TRACK 13 AUDIO
TITLE "Rectangle 13"
PERFORMER "SFQ"
INDEX 01 00:00:00
FILE "14 - Soft Hard (Interpolation 3) + End Frame.wav" WAVE
TRACK 14 AUDIO
TITLE "Soft Hard (Interpolation 3) + End Frame"
PERFORMER "SFQ"
INDEX 01 00:00:00
 
Лог проверки качества
d:\>d:\aucdtect -d/-m0 d:\zzz\*.wav
auCDtect: CD records authenticity detector, version 0.8.2
Copyright (c) 2004 Oleg Berngardt. All rights reserved.
Copyright (c) 2004 Alexander Djourik. All rights reserved.
------------------------------------------------------------
Processing file: [01. Start Frame + Soft Hard (Interpolation 1).wav]
------------------------------------------------------------
This track looks like CDDA with probability 100%
------------------------------------------------------------
Processing file: [02. Rectangle 1.wav]
------------------------------------------------------------
This track looks like CDDA with probability 100%
------------------------------------------------------------
Processing file: [03. Rectangle 2.wav]
------------------------------------------------------------
This track looks like CDDA with probability 100%
------------------------------------------------------------
Processing file: [04. Rectangle 3.wav]
------------------------------------------------------------
This track looks like MPEG with probability 90%
------------------------------------------------------------
Processing file: [05. Rectangles 4 & 5.wav]
------------------------------------------------------------
This track looks like CDDA with probability 100%
------------------------------------------------------------
Processing file: [06. Rectangle 6.wav]
------------------------------------------------------------
This track looks like CDDA with probability 100%
------------------------------------------------------------
Processing file: [07. Rectangle 7.wav]
------------------------------------------------------------
This track looks like CDDA with probability 100%
------------------------------------------------------------
Processing file: [08. Soft Hard (Interpolation 2).wav]
------------------------------------------------------------
This track looks like CDDA with probability 100%
------------------------------------------------------------
Processing file: [09. Rectangle 8.wav]
------------------------------------------------------------
This track looks like CDDA with probability 100%
------------------------------------------------------------
Processing file: [10. Rectangle 9.wav]
------------------------------------------------------------
This track looks like CDDA with probability 100%
------------------------------------------------------------
Processing file: [11. Rectangle 10.wav]
------------------------------------------------------------
This track looks like CDDA with probability 100%
------------------------------------------------------------
Processing file: [12. Rectangles 11 & 12.wav]
------------------------------------------------------------
This track looks like CDDA with probability 100%
------------------------------------------------------------
Processing file: [13. Rectangle 13.wav]
------------------------------------------------------------
This track looks like CDDA with probability 85%
------------------------------------------------------------
Processing file: [14. Soft Hard (Interpolation 3) + End Frame.wav]
------------------------------------------------------------
This track looks like CDDA with probability 100%
------------------------------------------------------------
Final Conclusion:
------------------------------------------------------------
These tracks looks like CDDA with probability 100%
Доп. информация:
 
Album Info & AAJ Review
Composed by Simon H. Fell
(Simon H. Fell, composition No. 51c: Thirteen Rectangles Version 2)
Recorded at Gateway Studio, Kingston-upon-Thames; 8th April 2001
Original session engineered by Steve Lowe, produced by Steve Shepherd
This version produced by Simon H. Fell
Artwork design by SHF; SFQ image (C) Jo Fell 2001
Liner notes: SHF, March 2002
Long hailed as one of the finest bassist/composers to grace Britain’s always flourishing modern/free jazz arena, Simon H. Fell has released much of his most prolific work on his Bruce’s Fingers label. With this outing, he leads a quintet through fourteen interrelated pieces, distinguished by various degrees of momentum and complex, harmonic formations. As Fell states in the liners, “ The structure of the work is derived from the 1930 painting by Wassily Kandinsky known in English as Thirteen Rectangles. "
Fell and associates implement geometrically inclined themes to coincide with gobs of heated and/or subdued improvisational episodes. The band can also swing, amid abstract doses of traditional jazz concepts and free style opuses. The bassist enables his musical associates with the ability or option to reconfigure themes and time signatures. Fell provides the instrumentalists with a great deal of flexibility – where they can veer off and alter the inherent compositional forms, yet not stray too far off course. This compelling effort should rouse the interests of the avant-gardists, modernists and whomever else might be up for the occasion. (Recommended...)
 
Состав
Alex Ward: clarinet
Gail Brand: trombone
Alex Maguire: piano
Simon H. Fell: double bass
Steve Noble: drums
По всем вопросам пишите личное сообщение пользователю M0p94ok.
02:22
185
Нет комментариев. Ваш будет первым!