Вы используете незарегистрированную версию компонента "Вкладки"!

Поиск

(Avant-Garde Jazz, Free Improvisation) [CD] Brian Glick (w/ Pete Cafarella & Nate Smith) - Codebreaker - 2002, FLAC (tracks+.cue), lossless

(Avant-Garde Jazz, Free Improvisation) [CD] Brian Glick (w/ Pete Cafarella & Nate Smith) - Codebreaker - 2002, FLAC (tracks+.cue), lossless
Треклист:
Brian Glick / Codebreaker
Жанр: Avant-Garde Jazz, Free Improvisation
Носитель: CD
Страна-производитель диска: Canada
Год издания: 2002
Издатель (лейбл): Newsonic
Номер по каталогу: Newsonic 29
Страна: US
Аудиокодек: FLAC (*.flac)
Тип рипа: tracks+.cue
Битрейт аудио: lossless
Продолжительность: 50:49
Источник (релизер): свой фирменный диск
Наличие сканов в содержимом раздачи:
Треклист:
1. Vitality 3:59
2. Mint 4:29
3. Metamora 5:16
4. Blackmaria 6:48
5. Wallcrawl 8:29
6. Pe De Pano 4:09
7. Corrida 8:56
8. Chromed 5:05
9. Codebreaker 3:16
 
Лог создания рипа
Exact Audio Copy V1.0 beta 3 from 29. August 2011
EAC extraction logfile from 16. April 2014, 23:37
Brian Glick / Codebreaker
Used drive : PIONEER DVD-RW DVR-115D Adapter: 0 ID: 0
Read mode : Secure
Utilize accurate stream : Yes
Defeat audio cache : Yes
Make use of C2 pointers : No
Read offset correction : 48
Overread into Lead-In and Lead-Out : No
Fill up missing offset samples with silence : Yes
Delete leading and trailing silent blocks : No
Null samples used in CRC calculations : Yes
Used interface : Installed external ASPI interface
Gap handling : Appended to previous track
Used output format : User Defined Encoder
Selected bitrate : 896 kBit/s
Quality : High
Add ID3 tag : No
Command line compressor : C:\Program Files\Exact Audio Copy\FLAC\FLAC.EXE
Additional command line options : -6 -V -T "ARTIST=%artist%" -T "TITLE=%title%" -T "ALBUM=%albumtitle%" -T "DATE=%year%" -T "TRACKNUMBER=%tracknr%" -T "GENRE=%genre%" -T "COMMENT=%comment%" -T "BAND=%albuminterpret%" -T "COMPOSER=%composer%" %haslyrics%--tag-from-file=LYRICS="%lyricsfile%"%haslyrics% -T "DISCNUMBER=%cdnumber%" -T "TOTALDISCS=%totalcds%" -T "TOTALTRACKS=%numtracks%" %hascover%--picture="%coverfile%"%hascover% %source% -o %dest%
TOC of the extracted CD
Track | Start | Length | Start sector | End sector
---------------------------------------------------------
1 | 0:00.00 | 4:01.07 | 0 | 18081
2 | 4:01.07 | 4:31.48 | 18082 | 38454
3 | 8:32.55 | 5:18.13 | 38455 | 62317
4 | 13:50.68 | 6:50.51 | 62318 | 93118
5 | 20:41.44 | 8:31.63 | 93119 | 131506
6 | 29:13.32 | 4:11.64 | 131507 | 150395
7 | 33:25.21 | 8:58.50 | 150396 | 190795
8 | 42:23.71 | 5:07.10 | 190796 | 213830
9 | 47:31.06 | 3:18.06 | 213831 | 228686
Track 1
Filename D:\zzz\01 - Vitality.wav
Pre-gap length 0:00:02.00
Peak level 96.5 %
Extraction speed 4.3 X
Track quality 100.0 %
Test CRC 0B5ED51B
Copy CRC 0B5ED51B
Track not present in AccurateRip database
Copy OK
Track 2
Filename D:\zzz\02 - Mint.wav
Pre-gap length 0:00:02.00
Peak level 64.5 %
Extraction speed 4.8 X
Track quality 100.0 %
Test CRC EDBDBB3E
Copy CRC EDBDBB3E
Track not present in AccurateRip database
Copy OK
Track 3
Filename D:\zzz\03 - Metamora.wav
Pre-gap length 0:00:02.00
Peak level 96.6 %
Extraction speed 5.4 X
Track quality 100.0 %
Test CRC 22E79B06
Copy CRC 22E79B06
Track not present in AccurateRip database
Copy OK
Track 4
Filename D:\zzz\04 - Blackmaria.wav
Pre-gap length 0:00:02.00
Peak level 28.9 %
Extraction speed 5.6 X
Track quality 99.9 %
Test CRC BAE37166
Copy CRC BAE37166
Track not present in AccurateRip database
Copy OK
Track 5
Filename D:\zzz\05 - Wallcrawl.wav
Pre-gap length 0:00:02.00
Peak level 53.9 %
Extraction speed 6.7 X
Track quality 100.0 %
Test CRC 4D609175
Copy CRC 4D609175
Track not present in AccurateRip database
Copy OK
Track 6
Filename D:\zzz\06 - Pe De Pano.wav
Pre-gap length 0:00:02.00
Peak level 71.3 %
Extraction speed 6.7 X
Track quality 100.0 %
Test CRC 59CC784D
Copy CRC 59CC784D
Track not present in AccurateRip database
Copy OK
Track 7
Filename D:\zzz\07 - Corrida.wav
Pre-gap length 0:00:02.00
Peak level 62.4 %
Extraction speed 7.6 X
Track quality 100.0 %
Test CRC D68ECCF5
Copy CRC D68ECCF5
Track not present in AccurateRip database
Copy OK
Track 8
Filename D:\zzz\08 - Chromed.wav
Pre-gap length 0:00:02.00
Peak level 89.0 %
Extraction speed 7.6 X
Track quality 100.0 %
Test CRC 1AC2B14E
Copy CRC 1AC2B14E
Track not present in AccurateRip database
Copy OK
Track 9
Filename D:\zzz\09 - Codebreaker.wav
Pre-gap length 0:00:02.00
Peak level 72.9 %
Extraction speed 7.4 X
Track quality 100.0 %
Test CRC EDDFF4F2
Copy CRC EDDFF4F2
Track not present in AccurateRip database
Copy OK
None of the tracks are present in the AccurateRip database
No errors occurred
End of status report
==== Log checksum AA9086BD0B03C8948D697D44E8477CCA4C9B0C040502EB32DFB45374B80C78E4 ====
 
Содержание индексной карты (.CUE)
REM GENRE "Avant-Garde Jazz"
REM DATE 2002
REM DISCID 690BE909
REM COMMENT "ExactAudioCopy v1.0b3"
PERFORMER "Brian Glick"
TITLE "Codebreaker"
FILE "01 - Vitality.wav" WAVE
TRACK 01 AUDIO
TITLE "Vitality"
PERFORMER "Brian Glick"
INDEX 01 00:00:00
TRACK 02 AUDIO
TITLE "Mint"
PERFORMER "Brian Glick"
INDEX 00 03:59:07
FILE "02 - Mint.wav" WAVE
INDEX 01 00:00:00
TRACK 03 AUDIO
TITLE "Metamora"
PERFORMER "Brian Glick"
INDEX 00 04:29:48
FILE "03 - Metamora.wav" WAVE
INDEX 01 00:00:00
TRACK 04 AUDIO
TITLE "Blackmaria"
PERFORMER "Brian Glick"
INDEX 00 05:16:13
FILE "04 - Blackmaria.wav" WAVE
INDEX 01 00:00:00
TRACK 05 AUDIO
TITLE "Wallcrawl"
PERFORMER "Brian Glick"
INDEX 00 06:48:51
FILE "05 - Wallcrawl.wav" WAVE
INDEX 01 00:00:00
TRACK 06 AUDIO
TITLE "Pe De Pano"
PERFORMER "Brian Glick"
INDEX 00 08:29:63
FILE "06 - Pe De Pano.wav" WAVE
INDEX 01 00:00:00
TRACK 07 AUDIO
TITLE "Corrida"
PERFORMER "Brian Glick"
INDEX 00 04:09:64
FILE "07 - Corrida.wav" WAVE
INDEX 01 00:00:00
TRACK 08 AUDIO
TITLE "Chromed"
PERFORMER "Brian Glick"
INDEX 00 08:56:50
FILE "08 - Chromed.wav" WAVE
INDEX 01 00:00:00
TRACK 09 AUDIO
TITLE "Codebreaker"
PERFORMER "Brian Glick"
INDEX 00 05:05:10
FILE "09 - Codebreaker.wav" WAVE
INDEX 01 00:00:00
 
Лог проверки качества
d:\>d:\aucdtect -d/-m0 d:\zzz\*.wav
auCDtect: CD records authenticity detector, version 0.8.2
Copyright (c) 2004 Oleg Berngardt. All rights reserved.
Copyright (c) 2004 Alexander Djourik. All rights reserved.
------------------------------------------------------------
Processing file: [01. Vitality.wav]
------------------------------------------------------------
This track looks like CDDA with probability 100%
------------------------------------------------------------
Processing file: [02. Mint.wav]
------------------------------------------------------------
This track looks like CDDA with probability 100%
------------------------------------------------------------
Processing file: [03. Metamora.wav]
------------------------------------------------------------
This track looks like CDDA with probability 100%
------------------------------------------------------------
Processing file: [04. Blackmaria.wav]
------------------------------------------------------------
This track looks like CDDA with probability 43%
------------------------------------------------------------
Processing file: [05. Wallcrawl.wav]
------------------------------------------------------------
This track looks like CDDA with probability 100%
------------------------------------------------------------
Processing file: [06. Pe De Pano.wav]
------------------------------------------------------------
This track looks like CDDA with probability 100%
------------------------------------------------------------
Processing file: [07. Corrida.wav]
------------------------------------------------------------
This track looks like CDDA with probability 100%
------------------------------------------------------------
Processing file: [08. Chromed.wav]
------------------------------------------------------------
This track looks like CDDA with probability 86%
------------------------------------------------------------
Processing file: [09. Codebreaker.wav]
------------------------------------------------------------
This track looks like CDDA with probability 100%
------------------------------------------------------------
Final Conclusion:
------------------------------------------------------------
These tracks looks like CDDA with probability 100%
Доп. информация:
 
Album Info & AMG Review
Produced by Seth Misterka and Brian Glick
Recorded at Newsonic Studios, Brooklyn, Feb 02
Recorded and engineered by Misterka and Cafarella
Photo by Samantha Yard
All music (C)Brainspy Music (BMI)
Thank you Janice, Len, & Sara
A top-notch rhythm section undergirds this impressive effort by saxophonist Brian Glick on his second release as a leader. A trio of sax, piano, and percussion might be somewhat off-putting for its limited harmonic appeal, but Glick tries very hard, mostly successfully, to maintain variety and diversity. This is not your usual freestyle blowout; the saxophonist is a power player, to be sure, but he tempers his approach with a significant heterogeneity that mostly succeeds in its eclecticism. By focusing on three types of saxophones, and playing each of them with equal authority, Glick projects a multi-talented field of forceful and spasmodic multifariousness. On "Blackmaria," there is a sort of original freestyle minimalism that, while not always successful, nonetheless displays a unique individual concept imbued with repetitive pulses. Glick infuses his compositions with a refreshing newness. Whether this is called jazz or avant-garde improvisation is irrelevant; it incorporates strategies and skills that are divorced from the mainstream. Glick eschews the blowout and instead opts for a sensitive, detailed structure that incorporates genres from a range of sources. That it mostly works is a testament to his abilities as a composer, soloist, and provoker.
 
Состав
Brian Glick: tenor, baritone, soprano saxophones
Pete Cafarella: piano, accordion
Nate Smith: percussion
По всем вопросам пишите личное сообщение пользователю M0p94ok.
02:23
154
Нет комментариев. Ваш будет первым!