Вы используете незарегистрированную версию компонента "Вкладки"!

Поиск

(Avant-Garde Jazz, Free Improvisation, Between The Lines) [CD] Hannes Enzlberger (w/ Thomas Berghammer, Hans Steiner, Oskar Aichinger) - Songs To Anything That Moves - 2002, FLAC (tracks+.cue), lossless

(Avant-Garde Jazz, Free Improvisation, Between The Lines) [CD] Hannes Enzlberger (w/ Thomas Berghammer, Hans Steiner, Oskar Aichinger) - Songs To Anything That Moves - 2002, FLAC (tracks+.cue), lossless
Треклист:
Hannes Enzlberger / Songs To Anything That Moves
Жанр: Avant-Garde Jazz, Free Improvisation, Between The Lines
Носитель: CD
Страна-производитель диска: Germany
Год издания: 2002
Издатель (лейбл): Between The Lines
Номер по каталогу: btl 022 / EFA 10192-2
Страна: Austria
Аудиокодек: FLAC (*.flac)
Тип рипа: tracks+.cue
Битрейт аудио: lossless
Продолжительность: 49:49
Источник (релизер): свой фирменный диск
Наличие сканов в содержимом раздачи:
Треклист:
1. It's A Stony Way 8:10
2. Heisse Nachte 8:48
3. Losn 11:23
4-10. Sieben Versatzstucke 21:26
 
Лог создания рипа
Exact Audio Copy V1.0 beta 3 from 29. August 2011
EAC extraction logfile from 17. April 2014, 22:38
Hannes Enzlberger / Songs To Anything That Moves
Used drive : PIONEER DVD-RW DVR-115D Adapter: 0 ID: 0
Read mode : Secure
Utilize accurate stream : Yes
Defeat audio cache : Yes
Make use of C2 pointers : No
Read offset correction : 48
Overread into Lead-In and Lead-Out : No
Fill up missing offset samples with silence : Yes
Delete leading and trailing silent blocks : No
Null samples used in CRC calculations : Yes
Used interface : Installed external ASPI interface
Gap handling : Appended to previous track
Used output format : User Defined Encoder
Selected bitrate : 896 kBit/s
Quality : High
Add ID3 tag : No
Command line compressor : C:\Program Files\Exact Audio Copy\FLAC\FLAC.EXE
Additional command line options : -6 -V -T "ARTIST=%artist%" -T "TITLE=%title%" -T "ALBUM=%albumtitle%" -T "DATE=%year%" -T "TRACKNUMBER=%tracknr%" -T "GENRE=%genre%" -T "COMMENT=%comment%" -T "BAND=%albuminterpret%" -T "COMPOSER=%composer%" %haslyrics%--tag-from-file=LYRICS="%lyricsfile%"%haslyrics% -T "DISCNUMBER=%cdnumber%" -T "TOTALDISCS=%totalcds%" -T "TOTALTRACKS=%numtracks%" %hascover%--picture="%coverfile%"%hascover% %source% -o %dest%
TOC of the extracted CD
Track | Start | Length | Start sector | End sector
---------------------------------------------------------
1 | 0:00.00 | 8:10.54 | 0 | 36803
2 | 8:10.54 | 8:53.45 | 36804 | 76823
3 | 17:04.24 | 11:23.58 | 76824 | 128106
4 | 28:28.07 | 1:07.74 | 128107 | 133205
5 | 29:36.06 | 3:35.31 | 133206 | 149361
6 | 33:11.37 | 4:04.18 | 149362 | 167679
7 | 37:15.55 | 4:51.70 | 167680 | 189574
8 | 42:07.50 | 1:30.62 | 189575 | 196386
9 | 43:38.37 | 1:25.00 | 196387 | 202761
10 | 45:03.37 | 4:46.17 | 202762 | 224228
Track 1
Filename D:\zzz\01 - It's A Stony Way.wav
Pre-gap length 0:00:02.00
Peak level 96.6 %
Extraction speed 4.6 X
Track quality 99.9 %
Test CRC E4245ED4
Copy CRC E4245ED4
Track not present in AccurateRip database
Copy OK
Track 2
Filename D:\zzz\02 - Heisse Nachte.wav
Pre-gap length 0:00:05.00
Peak level 96.6 %
Extraction speed 5.8 X
Track quality 100.0 %
Test CRC 68C28996
Copy CRC 68C28996
Track not present in AccurateRip database
Copy OK
Track 3
Filename D:\zzz\03 - Losn.wav
Pre-gap length 0:00:05.00
Peak level 96.6 %
Extraction speed 6.7 X
Track quality 100.0 %
Test CRC B1CB07B7
Copy CRC B1CB07B7
Track not present in AccurateRip database
Copy OK
Track 4
Filename D:\zzz\04 - Sieben Versatzstucke I.wav
Pre-gap length 0:00:05.00
Peak level 96.6 %
Extraction speed 4.9 X
Track quality 100.0 %
Test CRC E3322475
Copy CRC E3322475
Track not present in AccurateRip database
Copy OK
Track 5
Filename D:\zzz\05 - Sieben Versatzstucke II.wav
Peak level 49.8 %
Extraction speed 6.6 X
Track quality 100.0 %
Test CRC EB4D63CC
Copy CRC EB4D63CC
Track not present in AccurateRip database
Copy OK
Track 6
Filename D:\zzz\06 - Sieben Versatzstucke III.wav
Peak level 96.6 %
Extraction speed 7.0 X
Track quality 100.0 %
Test CRC 01A9E5BE
Copy CRC 01A9E5BE
Track not present in AccurateRip database
Copy OK
Track 7
Filename D:\zzz\07 - Sieben Versatzstucke IV.wav
Peak level 96.6 %
Extraction speed 7.4 X
Track quality 100.0 %
Test CRC 4B9A5601
Copy CRC 4B9A5601
Track not present in AccurateRip database
Copy OK
Track 8
Filename D:\zzz\08 - Sieben Versatzstucke V.wav
Peak level 96.6 %
Extraction speed 6.1 X
Track quality 100.0 %
Test CRC 834AEFEF
Copy CRC 834AEFEF
Track not present in AccurateRip database
Copy OK
Track 9
Filename D:\zzz\09 - Sieben Versatzstucke VI.wav
Peak level 60.0 %
Extraction speed 4.7 X
Track quality 99.8 %
Test CRC E6C116DB
Copy CRC E6C116DB
Track not present in AccurateRip database
Copy OK
Track 10
Filename D:\zzz\10 - Sieben Versatzstucke VII.wav
Peak level 78.8 %
Extraction speed 7.8 X
Track quality 100.0 %
Test CRC 47839869
Copy CRC 47839869
Track not present in AccurateRip database
Copy OK
None of the tracks are present in the AccurateRip database
No errors occurred
End of status report
==== Log checksum 589D1AB47B7CC1DE60DC63B2EDBE9097591AA05170FA75D8B4D9383F0F20A2CF ====
 
Содержание индексной карты (.CUE)
REM GENRE "Avant-Garde Jazz"
REM DATE 2002
REM DISCID 880BAD0A
REM COMMENT "ExactAudioCopy v1.0b3"
PERFORMER "Hannes Enzlberger"
TITLE "Songs To Anything That Moves"
FILE "01 - It's A Stony Way.wav" WAVE
TRACK 01 AUDIO
TITLE "It's A Stony Way"
PERFORMER "Hannes Enzlberger"
FLAGS DCP
INDEX 01 00:00:00
TRACK 02 AUDIO
TITLE "Heisse Nachte"
PERFORMER "Hannes Enzlberger"
FLAGS DCP
INDEX 00 08:05:54
FILE "02 - Heisse Nachte.wav" WAVE
INDEX 01 00:00:00
TRACK 03 AUDIO
TITLE "Losn"
PERFORMER "Hannes Enzlberger"
FLAGS DCP
INDEX 00 08:48:45
FILE "03 - Losn.wav" WAVE
INDEX 01 00:00:00
TRACK 04 AUDIO
TITLE "Sieben Versatzstucke I"
PERFORMER "Hannes Enzlberger"
FLAGS DCP
INDEX 00 11:18:58
FILE "04 - Sieben Versatzstucke I.wav" WAVE
INDEX 01 00:00:00
FILE "05 - Sieben Versatzstucke II.wav" WAVE
TRACK 05 AUDIO
TITLE "Sieben Versatzstucke II"
PERFORMER "Hannes Enzlberger"
FLAGS DCP
INDEX 01 00:00:00
FILE "06 - Sieben Versatzstucke III.wav" WAVE
TRACK 06 AUDIO
TITLE "Sieben Versatzstucke III"
PERFORMER "Hannes Enzlberger"
FLAGS DCP
INDEX 01 00:00:00
FILE "07 - Sieben Versatzstucke IV.wav" WAVE
TRACK 07 AUDIO
TITLE "Sieben Versatzstucke IV"
PERFORMER "Hannes Enzlberger"
FLAGS DCP
INDEX 01 00:00:00
FILE "08 - Sieben Versatzstucke V.wav" WAVE
TRACK 08 AUDIO
TITLE "Sieben Versatzstucke V"
PERFORMER "Hannes Enzlberger"
FLAGS DCP
INDEX 01 00:00:00
FILE "09 - Sieben Versatzstucke VI.wav" WAVE
TRACK 09 AUDIO
TITLE "Sieben Versatzstucke VI"
PERFORMER "Hannes Enzlberger"
FLAGS DCP
INDEX 01 00:00:00
FILE "10 - Sieben Versatzstucke VII.wav" WAVE
TRACK 10 AUDIO
TITLE "Sieben Versatzstucke VII"
PERFORMER "Hannes Enzlberger"
FLAGS DCP
INDEX 01 00:00:00
 
Лог проверки качества
d:\>d:\aucdtect -d/-m0 d:\zzz\*.wav
auCDtect: CD records authenticity detector, version 0.8.2
Copyright (c) 2004 Oleg Berngardt. All rights reserved.
Copyright (c) 2004 Alexander Djourik. All rights reserved.
------------------------------------------------------------
Processing file: [01. It's A Stony Way.wav]
------------------------------------------------------------
This track looks like CDDA with probability 100%
------------------------------------------------------------
Processing file: [02. Heisse Nachte.wav]
------------------------------------------------------------
This track looks like CDDA with probability 100%
------------------------------------------------------------
Processing file: [03. Losn.wav]
------------------------------------------------------------
This track looks like CDDA with probability 100%
------------------------------------------------------------
Processing file: [04. Sieben Versatzstucke I.wav]
------------------------------------------------------------
This track looks like CDDA with probability 100%
------------------------------------------------------------
Processing file: [05. Sieben Versatzstucke II.wav]
------------------------------------------------------------
This track looks like CDDA with probability 100%
------------------------------------------------------------
Processing file: [06. Sieben Versatzstucke III.wav]
------------------------------------------------------------
This track looks like CDDA with probability 100%
------------------------------------------------------------
Processing file: [07. Sieben Versatzstucke IV.wav]
------------------------------------------------------------
This track looks like CDDA with probability 58%
------------------------------------------------------------
Processing file: [08. Sieben Versatzstucke V.wav]
------------------------------------------------------------
This track looks like CDDA with probability 100%
------------------------------------------------------------
Processing file: [09. Sieben Versatzstucke VI.wav]
------------------------------------------------------------
This track looks like CDDA with probability 100%
------------------------------------------------------------
Processing file: [10. Sieben Versatzstucke VII.wav]
------------------------------------------------------------
This track looks like CDDA with probability 100%
------------------------------------------------------------
Final Conclusion:
------------------------------------------------------------
These tracks looks like CDDA with probability 100%
Доп. информация:
 
Album Info & AAJ Review
All compositions by Hannes Enzlberger
Recorded at Franz Hochedlinger Gasse 24, Vienna, December 21st & 22nd 2001
Recording engineer: Josef Novotny
Cover art work: Gerald Domenig
Graphic design: fuhrer vienna
Produced by between the lines GmbH & Co. oHG
Artistic director: Franz Koglmann
Liner notes: Hannes Enzlberger, translated by Susanne Watzek
Austrian bassist Hannes Enzlberger describes his affinity for the music of Carla Bley, along with brief anecdotes about how some of her works influenced the material here. The bassist conveys an organic tone amid his pliant execution and booming patterns. Whereas Enzlberger’s arrangements are built upon a chamber-like approach, awash with the quartet’s concise unison lines and compelling improvisational excursions. The group expounds upon the various flavors of these pieces with a semi-structural flow – where the disciplines of a classical quartet coalesce with the loose vibe of an improv troupe. Ultimately, they capture a mood to coincide with a few bluesy concepts, and whimsical storylines. Enzlberger asserts that his (suite-like) piece titled “Sieben Versatzstucke,” “represents a collage” of his exploration of Ms. Bley’s now legendary Escalator Over The Hill 3-LP set. Here, the quartet opens with a harsh ostinato groove, emphasized by pianist Oskar Aichinger’s heavy-handed block chords and Hans Steiner’s raspy bass clarinet work. The musicians also pursue highly emotive dialogue, while maneuvering through dark corners and cleverly articulated harmonic episodes. Recommended...
 
Состав
Thomas Berghammer: trumpet, flugelhorn
Hans Steiner: bass clarinet
Oskar Aichinger: piano
Hannes Enzlberger: bass
По всем вопросам пишите личное сообщение пользователю M0p94ok.
02:24
140
Нет комментариев. Ваш будет первым!