Поиск

(Free Improvisation / Avant-Garde Jazz) [CD] Andrew Lamb (Tom Abbs, Michael Wimberly, Guillermo E. Brown) - Rhapsody in Black - 2012 [NoBusiness Records NBCD 40], FLAC (tracks+.cue), lossless

(Free Improvisation / Avant-Garde Jazz) [CD] Andrew Lamb (Tom Abbs, Michael Wimberly, Guillermo E. Brown) - Rhapsody in Black - 2012 [NoBusiness Records NBCD 40], FLAC (tracks+.cue), lossless
Andrew Lamb - Rhapsody in Black
Жанр: Free Improvisation / Avant-Garde Jazz
Носитель: CD
Страна-производитель диска: Lithuania
Год издания: 2012
Год записи: 2008
Издатель (лейбл): NoBusiness Records
Номер по каталогу: NBCD 40
Аудиокодек: FLAC (*.flac)
Тип рипа: tracks+.cue
Битрейт аудио: lossless
Продолжительность: 00:54:27
Источник (релизер): nnm, Джаз Клуб, 30 мая, 2014 / спасибо mishka1981
Наличие сканов в содержимом раздачи: да
Треклист:
1. Initiation (13:38)
2. Rhapsody In Black (12:45)
3. To Love In The Rain (Portrait Of A Virtuous Woman) (13:35)
4. Song Of The Miracle Lives (14:26)
Доп. информация:
Musicians:
Andrew Lamb a.k.a The Black Lamb - saxophone, flute, clarinet, conch shell
Tom Abbs - bass, tuba, didjeridoo
Michael Wimberly - drums and percussion
Guillermo E. Brown - drums and percussion
Recorded live at Roulette on 14th November, 2008
© 2012, NoBusiness Records
Andrew Lamb - Rhapsody in Black nobusinessrecords.com
Andrew Lamb - Rhapsody in Black allaboutjazz.com
Andrew Lamb from Wikipedia, the free encyclopedia
Tom Abbs from Wikipedia, the free encyclopedia
Guillermo E. Brown from Wikipedia, the free encyclopedia
 
... back ...
 
... photo ...

 
... review ...
In spite of a more than three decades on the New York City front line, saxophonist Andrew Lamb remains something of an unknown quantity. Over that time he has amassed only eight leadership dates, the majority on small independent labels. To that total can be added Rhapsody In Black, a live blowing session from 2008 which feels as if it could have been recorded any time since the late '70s. Indeed, Lamb imbues his sound with the spirituality of late periodJohn Coltrane, smoldering with a slow burning passion, bordering on the ecstatic, recalling his early AACM mentor, reed man Kalaparush Maurice McIntyre.
The dual percussion of downtown stalwart Michael Wimberly and Guillermo E. Brown (best known from his stint with saxophonist David S. Ware) establishes an ethnic feel, an element of ritual, which together with the sporadic didgeridoo of enterprising bassist and tubaist Tom Abbs, create a seething rhythmic backdrop for Lamb's ruminations. Using simple phrases and restated motifs, the horn man creates a solid backbone from which the improvisations sally forth, begetting a satisfying sense of structure. Abbs shares not only a long tenure with the leader, but also that same ability to impart cohesion to spontaneous playing through judicious use of reiterated patterns and riffs, though in his case frequently disrupted by forays into freer territory.
Lamb's strongest statements come on tenor saxophone where his muscular burnished tone enthralls, sticking largely to an incantatory middle register, only sparingly overblowing hymn like cadences. But he also deploys throaty clarinet on the opening "Initiation," which like all the cuts, builds slowly from sparse beginnings to an impassioned crescendo, and blows airy flute with a haunted melodicism on "To Love In The Rain (Portrait Of A Virtuous Woman)" before conjuring more primeval textures by blowing conch shell later in the piece.
Abbs combines deep powerful bass calisthenics with occasional simultaneous blurts on tuba which ratchet up the excitement levels. The twin drummers, well separated in the mix, though not identified by channel, don't overwhelm and leave space for both each other and the bass and horns, roiling in tandem only during the standout title track and the closing "Song Of The Miracle Lives. Though undoubtedly captivating in concert, the uncomplicated building blocks mean that the set fares slightly less well on repeated listens, but nonetheless represents a valuable addition to a slender discography.
John Sharpe ~ freejazzblog.org
 
Лог создания рипа
Exact Audio Copy V1.0 beta 1 from 15. November 2010
EAC extraction logfile from 29. May 2014, 23:15
Andrew Lamb / Rhapsody In Black
Used drive : Optiarc DVD RW AD-7710H Adapter: 1 ID: 0
Read mode : Secure
Utilize accurate stream : Yes
Defeat audio cache : Yes
Make use of C2 pointers : No
Read offset correction : 48
Overread into Lead-In and Lead-Out : No
Fill up missing offset samples with silence : Yes
Delete leading and trailing silent blocks : No
Null samples used in CRC calculations : Yes
Used interface : Native Win32 interface for Win NT & 2000
Gap handling : Appended to previous track
Used output format : User Defined Encoder
Selected bitrate : 896 kBit/s
Quality : High
Add ID3 tag : No
Command line compressor : C:\Program Files\Exact Audio Copy\FLAC\FLAC.EXE
Additional command line options : -8 -V -T "ARTIST=%a" -T "TITLE=%t" -T "ALBUM=%g" -T "DATE=%y" -T "TRACKNUMBER=%n" -T "GENRE=%m" -T "COMMENT=%e" %j--picture="%i"%j %s -o %d
TOC of the extracted CD
Track | Start | Length | Start sector | End sector
---------------------------------------------------------
1 | 0:00.00 | 13:42.18 | 0 | 61667
2 | 13:42.18 | 12:48.32 | 61668 | 119299
3 | 26:30.50 | 13:38.23 | 119300 | 180672
4 | 40:08.73 | 14:27.24 | 180673 | 245721
Track 1
Filename C:\MY RIPS\01 - Initiation.wav
Pre-gap length 0:00:02.00
Peak level 97.5 %
Extraction speed 3.5 X
Track quality 100.0 %
Test CRC 7BE23D0E
Copy CRC 7BE23D0E
Cannot be verified as accurate (confidence 1) [588201CC], AccurateRip returned [6D058DC0]
Copy OK
Track 2
Filename C:\MY RIPS\02 - Rhapsody In Black.wav
Pre-gap length 0:00:03.00
Peak level 100.0 %
Extraction speed 4.4 X
Track quality 100.0 %
Test CRC 127CE1D8
Copy CRC 127CE1D8
Cannot be verified as accurate (confidence 1) [B85851D5], AccurateRip returned [718FC89B]
Copy OK
Track 3
Filename C:\MY RIPS\03 - To Love In The rain.wav
Pre-gap length 0:00:03.00
Peak level 77.1 %
Extraction speed 5.1 X
Track quality 100.0 %
Test CRC 38B93E1F
Copy CRC 38B93E1F
Cannot be verified as accurate (confidence 1) [B78D8255], AccurateRip returned [CD0B4EF0]
Copy OK
Track 4
Filename C:\MY RIPS\04 - Song Of The Miracle Lives.wav
Pre-gap length 0:00:03.00
Peak level 88.0 %
Extraction speed 5.8 X
Track quality 100.0 %
Test CRC F860D211
Copy CRC F860D211
Cannot be verified as accurate (confidence 1) [2AF9D928], AccurateRip returned [1DB343E8]
Copy OK
No tracks could be verified as accurate
You may have a different pressing from the one(s) in the database
No errors occurred
End of status report
==== Log checksum F4EE1969FEFF4B42E3BD4D867D68A47B0609A2446E336937A2363D8F9502B7ED ====
 
Содержание индексной карты (.CUE)
REM DISCID 280CCC04
REM COMMENT "ExactAudioCopy v1.0b1"
PERFORMER "Andrew Lamb"
TITLE "Rhapsody In Black"
FILE "01 - Initiation.wav" WAVE
TRACK 01 AUDIO
TITLE "Initiation"
PERFORMER "Andrew Lamb"
INDEX 01 00:00:00
TRACK 02 AUDIO
TITLE "Rhapsody In Black"
PERFORMER "Andrew Lamb"
INDEX 00 13:39:18
FILE "02 - Rhapsody In Black.wav" WAVE
INDEX 01 00:00:00
TRACK 03 AUDIO
TITLE "To Love In The rain"
PERFORMER "Andrew Lamb"
INDEX 00 12:45:32
FILE "03 - To Love In The rain.wav" WAVE
INDEX 01 00:00:00
TRACK 04 AUDIO
TITLE "Song Of The Miracle Lives"
PERFORMER "Andrew Lamb"
INDEX 00 13:35:23
FILE "04 - Song Of The Miracle Lives.wav" WAVE
INDEX 01 00:00:00
 
auCDtect Task Manager
-----------------------
DON'T MODIFY THIS FILE
-----------------------
PERFORMER: auCDtect Task Manager, ver. 1.5.1RC6 build 1.5.1.7
Copyright (c) 2008-2010 y-soft. All rights reserved
http://y-soft.org
ANALYZER: auCDtect: CD records authenticity detector, version 0.8.2
Copyright (c) 2004 Oleg Berngardt. All rights reserved.
Copyright (c) 2004 Alexander Djourik. All rights reserved.
FILE: 04 - Song Of The Miracle Lives.flac
Size: 87523175 Hash: 9AE700BAAB1EBEA6B42170A99CAA36B7 Accuracy: -m0
Conclusion: CDDA 100%
Signature: 9081D3331E235DCE72787F28321B0691E36742C0
FILE: 03 - To Love In The rain.flac
Size: 71362593 Hash: 0BF67DBD1E0C34F0853B57453E9E7BA2 Accuracy: -m0
Conclusion: CDDA 100%
Signature: 1FC5B47C15DE4A69E88DDBC6295479DEE3723F8D
FILE: 02 - Rhapsody In Black.flac
Size: 84664969 Hash: FD0C9BEED12F3C2EC6304347A2C87EE9 Accuracy: -m0
Conclusion: CDDA 100%
Signature: 8340310E008D72FC6B7B68CE154EEB6AABE3BEAA
FILE: 01 - Initiation.flac
Size: 81734044 Hash: 8273E887F4689916790BBC0C79230C69 Accuracy: -m0
Conclusion: MPEG 95%
Signature: 61BA1D4A28DD7BCFB9F16C632F8C74C7FB71AC6B
02:20
340
Нет комментариев. Ваш будет первым!