Вы используете незарегистрированную версию компонента "Вкладки"!

Поиск

(avant-garde) [cd] Anthony Braxton - Eight (+3) Tristano Compositions 1989, FLAC (tracks), lossless

(avant-garde) [cd] Anthony Braxton - Eight (+3) Tristano Compositions 1989, FLAC (tracks), lossless
Треклист:


Anthony Braxton - Eight (+3) Tristano Compositions 1989

Жанр: avant-garde
Год выпуска: 1989
Издатель (лейбл):hat ART CD 6052
Формат: FLAC (tracks)
Битрейт аудио: lossless
Продолжительность 1`14`57
Источник: ed2k

tracks
1 Two Not One 7:14
2 317 E 32nd Street 8:14
3 Dreams 5:41
4 Lennies Pennies 9:20
5 How Deep Is The Ocean 4:42
6 Victory Ball 4:45
7 Sax Of A Kind 4:05
8 Lennie Bird 6:25
9 Time On My Hands 4:50
10 Victory Ball (Take 2) 5:07
11 Baby 5:10
12 April 9:26


 
auCDtect
auCDtect: CD records authenticity detector, version 0.8.2
Copyright (c) 2004 Oleg Berngardt. All rights reserved.
Copyright (c) 2004 Alexander Djourik. All rights reserved.
------------------------------------------------------------
Processing file: [01 - Two Not One.wav]
------------------------------------------------------------
This track looks like CDDA with probability 100%
------------------------------------------------------------
Processing file: [02 - 317e 32nd Street.wav]
------------------------------------------------------------
This track looks like CDDA with probability 100%
------------------------------------------------------------
Processing file: [03 - Dreams.wav]
------------------------------------------------------------
This track looks like CDDA with probability 100%
------------------------------------------------------------
Processing file: [04 - Lennies Pennies.wav]
------------------------------------------------------------
This track looks like CDDA with probability 100%
------------------------------------------------------------
Processing file: [05 - How Deep Is The Ocean.wav]
------------------------------------------------------------
This track looks like CDDA with probability 100%
------------------------------------------------------------
Processing file: [06 - Victory Ball.wav]
------------------------------------------------------------
This track looks like CDDA with probability 100%
------------------------------------------------------------
Processing file: [07 - Sax Of A Kind.wav]
------------------------------------------------------------
This track looks like CDDA with probability 100%
------------------------------------------------------------
Processing file: [08 - Lennie Bird.wav]
------------------------------------------------------------
This track looks like CDDA with probability 100%
------------------------------------------------------------
Processing file: [09 - Time On My Hands.wav]
------------------------------------------------------------
This track looks like CDDA with probability 100%
------------------------------------------------------------
Processing file: [10 - Victory Ball (Take 2).wav]
------------------------------------------------------------
This track looks like CDDA with probability 100%
------------------------------------------------------------
Processing file: [11 - Baby.wav]
------------------------------------------------------------
This track looks like CDDA with probability 100%
------------------------------------------------------------
Processing file: [12 - April.wav]
------------------------------------------------------------
This track looks like CDDA with probability 100%
------------------------------------------------------------
Final Conclusion:
------------------------------------------------------------
These tracks looks like CDDA with probability 100%
 
.accurip
[CUETools log; Date: 18/07/12 14:27:54; Version: 2.1.2a]
[CTDB TOCID: gGKsKB6D8xFsSF2p0Bnp7w6Fg6U-] found.
[ CTDBID ] Status
[49d7c7f0] (1/1) Accurately ripped
[AccurateRip ID: 0022bf70-013d7b00-a811910c] found.
Track [ CRC ] Status
01 [0371abab] (0/9) No match
02 [cb4ef849] (0/9) No match
03 [e8a66110] (0/8) No match
04 [16278a14] (0/9) No match
05 [2698295d] (0/9) No match
06 [39292e25] (0/8) No match
07 [9c3bc115] (0/9) No match
08 [dee42072] (0/8) No match
09 [63417b39] (0/8) No match
10 [ab5131a9] (0/7) No match
11 [0eea35ae] (0/8) No match
12 [3847a0c1] (0/8) No match
Offsetted by 6:
01 [02f10ad7] (9/9) Accurately ripped
02 [8f8135a5] (9/9) Accurately ripped
03 [1e850132] (8/8) Accurately ripped
04 [186da732] (9/9) Accurately ripped
05 [6dfa6117] (9/9) Accurately ripped
06 [689dfd7f] (8/8) Accurately ripped
07 [fd58af99] (9/9) Accurately ripped
08 [ffa24fd2] (8/8) Accurately ripped
09 [325e4a7f] (8/8) Accurately ripped
10 [017c4f31] (7/7) Accurately ripped
11 [05ad6e9c] (8/8) Accurately ripped
12 [aa89be49] (8/8) Accurately ripped
Track Peak [ CRC32 ] [W/O NULL]
-- 96.2 [1D56FE06] [E58F667C]
01 95.5 [83D58048] [BAC53034]
02 95.5 [1EA469AA] [C4D14367]
03 80.2 [ED1DA3B7] [538EC92D]
04 95.3 [F9F5FB4F] [F7F3205E]
05 89.5 [63ED92A6] [EF29951C]
06 94.9 [42297F8B] [9E619002]
07 90.6 [9079A9BE] [57C7E014]
08 96.2 [5E8D1EF8] [9E20BB5A]
09 89.2 [3519B00C] [FACA963C]
10 93.5 [6DCA7477] [1252022F]
11 91.3 [D744B847] [3CF50A51]
12 96.0 [10D5A3CC] [F0F2D4FF]

http://www.discogs.com/Anthony-Braxton-Eight-3-Tristano-Compositions-1989-For-War.../release/1201895
другие релизы
По всем вопросам пишите личное сообщение пользователю M0p94ok.
02:20
343
Нет комментариев. Ваш будет первым!