Вы используете незарегистрированную версию компонента "Вкладки"!

Поиск

(Free Improvisation, Avant-Garde Jazz) Bergman - Borgmann - Brotzmann - Blue Zoo - 1997, FLAC (tracks+.cue) lossless

Треклист:
Bergman - Borgmann - Brotzmann - Blue Zoo
Жанр: Free Improvisation, Avant-Garde Jazz
Страна-производитель диска: Germany
Год издания диска: 1997
Издатель (лейбл): Konnex Records
Номер по каталогу: KCD 5074
Страна: Germany
Аудио кодек: FLAC (*.flac)
Тип рипа: tracks+.cue
Битрейт аудио: lossless
Продолжительность: 54:28
Источник (релизер): собственный рип с оригинального диска.
Наличие сканов в содержимом раздачи: да
Треклист:
01. Clear visions I
02. Clear visions II
03. Clear visions III
04. Blue Zoo I
05. Blue Zoo II
06. Right now is a good a time as any
07. Stride ahead
08. One block west
 
Лог создания рипа
Exact Audio Copy V0.99 prebeta 5 from 4. May 2009
EAC extraction logfile from 7. December 2010, 0:55
Bergman, Borgman, Brotzmann / Blue Zoo
Used drive : TSSTcorpCDDVDW SH-S222A Adapter: 1 ID: 0
Read mode : Secure
Utilize accurate stream : Yes
Defeat audio cache : Yes
Make use of C2 pointers : No
Read offset correction : 6
Overread into Lead-In and Lead-Out : No
Fill up missing offset samples with silence : Yes
Delete leading and trailing silent blocks : No
Null samples used in CRC calculations : Yes
Used interface : Native Win32 interface for Win NT & 2000
Gap handling : Appended to previous track
Used output format : User Defined Encoder
Selected bitrate : 768 kBit/s
Quality : High
Add ID3 tag : No
Command line compressor : C:\tool\Audio\Exact Audio Copy\FLAC\FLAC.EXE
Additional command line options : -V -8 -T "ARTIST=%a" -T "TITLE=%t" -T "ALBUM=%g" -T "TRACKNUMBER=%n" -T "GENRE=%m" %s
TOC of the extracted CD
Track | Start | Length | Start sector | End sector
---------------------------------------------------------
1 | 0:00.00 | 2:23.42 | 0 | 10766
2 | 2:23.42 | 9:22.20 | 10767 | 52936
3 | 11:45.62 | 2:29.33 | 52937 | 64144
4 | 14:15.20 | 6:37.17 | 64145 | 93936
5 | 20:52.37 | 5:26.40 | 93937 | 118426
6 | 26:19.02 | 10:09.08 | 118427 | 164109
7 | 36:28.10 | 12:29.72 | 164110 | 220356
8 | 48:58.07 | 5:33.60 | 220357 | 245391
Track 1
Filename C:\! RUTRACKER\ru up\Borah Bergman - Blue Zoo\01 - Clear Visions.wav
Pre-gap length 0:00:02.00
Peak level 91.6 %
Track quality 100.0 %
Test CRC E012C89F
Copy CRC E012C89F
Accurately ripped (confidence 1) [1E852B66]
Copy OK
Track 2
Filename C:\! RUTRACKER\ru up\Borah Bergman - Blue Zoo\02 - Clear Visions 2.wav
Peak level 98.5 %
Track quality 100.0 %
Test CRC DCF72978
Copy CRC DCF72978
Accurately ripped (confidence 1) [64D57987]
Copy OK
Track 3
Filename C:\! RUTRACKER\ru up\Borah Bergman - Blue Zoo\03 - Clear Visions 3.wav
Pre-gap length 0:00:02.50
Peak level 47.4 %
Track quality 99.9 %
Test CRC EE870495
Copy CRC EE870495
Accurately ripped (confidence 1) [9F6B28E9]
Copy OK
Track 4
Filename C:\! RUTRACKER\ru up\Borah Bergman - Blue Zoo\04 - Blue Zoo.wav
Pre-gap length 0:00:02.55
Peak level 98.9 %
Track quality 100.0 %
Test CRC 9CC3D0FC
Copy CRC 9CC3D0FC
Accurately ripped (confidence 1) [0998ED57]
Copy OK
Track 5
Filename C:\! RUTRACKER\ru up\Borah Bergman - Blue Zoo\05 - Blue Zoo 2.wav
Pre-gap length 0:00:00.62
Peak level 94.4 %
Track quality 100.0 %
Test CRC 2AD56221
Copy CRC 2AD56221
Accurately ripped (confidence 1) [A83B35E1]
Copy OK
Track 6
Filename C:\! RUTRACKER\ru up\Borah Bergman - Blue Zoo\06 - Right Now Is As Good A Time As Any.wav
Pre-gap length 0:00:01.57
Peak level 98.0 %
Track quality 100.0 %
Test CRC 3BE2EC1F
Copy CRC 3BE2EC1F
Accurately ripped (confidence 1) [FFC5AE1A]
Copy OK
Track 7
Filename C:\! RUTRACKER\ru up\Borah Bergman - Blue Zoo\07 - Stride Ahead.wav
Pre-gap length 0:00:02.18
Peak level 98.9 %
Track quality 100.0 %
Test CRC 1120D571
Copy CRC 1120D571
Accurately ripped (confidence 1) [F2EE8E2A]
Copy OK
Track 8
Filename C:\! RUTRACKER\ru up\Borah Bergman - Blue Zoo\08 - One Block West.wav
Pre-gap length 0:00:02.15
Peak level 88.8 %
Track quality 100.0 %
Test CRC AAA1B10A
Copy CRC AAA1B10A
Accurately ripped (confidence 1) [1F91031F]
Copy OK
All tracks accurately ripped
No errors occurred
End of status report
 
Содержание индексной карты (.CUE)
REM GENRE "Free Jazz"
REM DATE 1996
REM DISCID 640CC708
REM COMMENT "ExactAudioCopy v0.99pb5"
CATALOG 0000000000000
PERFORMER "Bergman, Borgman, Brotzmann"
TITLE "Blue Zoo"
FILE "01 - Clear Visions.wav" WAVE
TRACK 01 AUDIO
TITLE "Clear Visions"
PERFORMER "Bergman, Borgman, Brotzmann"
ISRC DED049700400
INDEX 01 00:00:00
FILE "02 - Clear Visions 2.wav" WAVE
TRACK 02 AUDIO
TITLE "Clear Visions 2"
PERFORMER "Bergman, Borgman, Brotzmann"
ISRC DED049700401
INDEX 01 00:00:00
TRACK 03 AUDIO
TITLE "Clear Visions 3"
PERFORMER "Bergman, Borgman, Brotzmann"
ISRC DED049700402
INDEX 00 09:19:45
FILE "03 - Clear Visions 3.wav" WAVE
INDEX 01 00:00:00
TRACK 04 AUDIO
TITLE "Blue Zoo"
PERFORMER "Bergman, Borgman, Brotzmann"
ISRC DED049700403
INDEX 00 02:26:53
FILE "04 - Blue Zoo.wav" WAVE
INDEX 01 00:00:00
TRACK 05 AUDIO
TITLE "Blue Zoo 2"
PERFORMER "Bergman, Borgman, Brotzmann"
ISRC DED049700404
INDEX 00 06:36:30
FILE "05 - Blue Zoo 2.wav" WAVE
INDEX 01 00:00:00
TRACK 06 AUDIO
TITLE "Right Now Is As Good A Time As Any"
PERFORMER "Bergman, Borgman, Brotzmann"
ISRC DED049700405
INDEX 00 05:24:58
FILE "06 - Right Now Is As Good A Time As Any.wav" WAVE
INDEX 01 00:00:00
TRACK 07 AUDIO
TITLE "Stride Ahead"
PERFORMER "Bergman, Borgman, Brotzmann"
ISRC DED049700406
INDEX 00 10:06:65
FILE "07 - Stride Ahead.wav" WAVE
INDEX 01 00:00:00
TRACK 08 AUDIO
TITLE "One Block West"
PERFORMER "Bergman, Borgman, Brotzmann"
ISRC DED049700407
INDEX 00 12:27:57
FILE "08 - One Block West.wav" WAVE
INDEX 01 00:00:00
Доп. информация:
Recorded at Rote Fabrik, Zürich, June 5, 1996, except No.2 of "Clear Visions", recorded at Mixtery Studios, Trumbull, CT, USA. June 9, 1996.
 
Об альбоме (сборнике)
Oh yeah, here we go. Three of free improv's wildest wonders in a set of spontaneous compositions set to curl the hair on the back of your neck and send you screaming into the night. Nah, it's not all that bad -- or good, depending on your point of view -- but this is a fine example of how the spontaneous composition principle works when it's displayed by three monster musicians such as these. With two sax players (and Brötzmann also plays bass clarinet) and a pianist all waiting for the moment to cut loose -- and wait, and wait, and wait -- the results are bound to be a bit daunting. And while it's true they are, they're also a hell of a lot of fun. Here tensions are created endlessly, it seems, just to see who is going to break and tear into the open field of improvisation first. Certainly "Clear Visions" is like this, as are the title track and "Stride Ahead." Elsewhere the trio seems to engage one another in creating loose intervals of improvisation, evoking senses of time and even rhythm in places, which is an illusion. The intervals created are for polytonal engagement, especially between the two saxophonists. As these duels ensue as they do on "Right Now" and "One Block West," Borah Bergman tears into the high register and establishes a percussive ostinato that falters in between intervals and moves off to create another it cannot sustain; there's too much going on tonally to stay put for very long at all. Hence this is a rabid-dog dialogue that is more restrained than it would at first appear, but is nonetheless wilder than 99 percent of the free improv work out there. It may not be for the faint-hearted, but it is truly rewarding music.
 
Состав
Peter Brötzmann - tenor sax,alto sax,bass-clarinet
Thomas Borgmann - tenor sax, sopranino sax
Borah Bergman - piano
Any questions -> support@pro-jazz.com. По всем вопросам пишите -> support@pro-jazz.com
06:28
154
Нет комментариев. Ваш будет первым!