Вы используете незарегистрированную версию компонента "Вкладки"!

Поиск

(Free Improvisation) Anne LeBaron - 1,2,4,3 - 2010, FLAC (tracks+.cue) lossless

Треклист:
Anne LeBaron / 1,2,4,3
Жанр: Free Improvisation
Год издания диска: 2010
Издатель (лейбл): innova
Номер по каталогу: 236
Аудио кодек: FLAC (*.flac)
Тип рипа: tracks+.cue
Битрейт аудио: lossless
Источник (релизер): сетЪ (sashulcha)
Наличие сканов в содержимом раздачи: нет
Треклист:
CD 1
01 Heat Wave 1
02 Succulent Blues
03 Rippling with Leroy
04 Mirage
05 Deleuzion
06 Principles of the Rhizome
07 Make a map, not a tracing
08 Heat Wave 2
09 Intermezzo
CD 2
01 Wake
02 Stream
03 Sukkulaöi Scream
04 Into something rich and strange
05 Submerged Cavern
06 Song of Marble
07 Funeral Bells for Harry Partch
08 Full Fathom Funayurei
09 Lagniappe: Hourglass of Stars
 
Лог создания рипа
X Lossless Decoder version 20101128 (126.0)
XLD extraction logfile from 2010-12-04 23:54:20 -0800
Anne LeBaron / 1, 2, 4, 3
Used drive : MATSHITA DVD-R UJ-867 (revision HA13)
Ripper mode : CDParanoia III 10.2
Disable audio cache : OK for the drive with a cache less than 2750KiB
Make use of C2 pointers : NO
Read offset correction : 102
Max retry count : 100
Gap status : Analyzed, Appended
TOC of the extracted CD
Track | Start | Length | Start sector | End sector
---------------------------------------------------------
1 | 00:00:00 | 04:42:04 | 0 | 21153
2 | 04:42:04 | 10:12:05 | 21154 | 67058
3 | 14:54:09 | 08:16:06 | 67059 | 104264
4 | 23:10:15 | 07:04:26 | 104265 | 136090
5 | 30:14:41 | 10:50:05 | 136091 | 184845
6 | 41:04:46 | 04:02:48 | 184846 | 203043
7 | 45:07:19 | 05:48:37 | 203044 | 229180
8 | 50:55:56 | 03:42:01 | 229181 | 245831
9 | 54:37:57 | 03:00:30 | 245832 | 259361
AccurateRip Summary
Disc not found in AccurateRip DB.
All Tracks
Album gain : 4.64 dB
Peak : 0.862793
Statistics
Read error : 0
Skipped (treated as error) : 0
Edge jitter error (maybe fixed) : 0
Atom jitter error (maybe fixed) : 0
Drift error (maybe fixed) : 0
Dropped bytes error (maybe fixed) : 0
Duplicated bytes error (maybe fixed) : 0
Track 01
Filename : /Users/Rants/Desktop/Anne LeBaron - 1,2,4,3 [2010] FLAC/Disk 1/01 - Heat Wave.flac
Pre-gap length : 00:02:00
Track gain : 2.15 dB
Peak : 0.669037
CRC32 hash (test run) : 29B8CA42
CRC32 hash : 29B8CA42
CRC32 hash (skip zero) : FEB0652A
AccurateRip signature : 00000000
->Track not present in AccurateRip database.
Statistics
Read error : 0
Skipped (treated as error) : 0
Edge jitter error (maybe fixed) : 0
Atom jitter error (maybe fixed) : 0
Drift error (maybe fixed) : 0
Dropped bytes error (maybe fixed) : 0
Duplicated bytes error (maybe fixed) : 0
Inconsistency in error sectors : 0
Track 02
Filename : /Users/Rants/Desktop/Anne LeBaron - 1,2,4,3 [2010] FLAC/Disk 1/02 - Succulent Blues.flac
Pre-gap length : 00:08:54
Track gain : 4.83 dB
Peak : 0.663239
CRC32 hash (test run) : 39D98A75
CRC32 hash : 39D98A75
CRC32 hash (skip zero) : 06D2AD2A
AccurateRip signature : 00000000
->Track not present in AccurateRip database.
Statistics
Read error : 0
Skipped (treated as error) : 0
Edge jitter error (maybe fixed) : 0
Atom jitter error (maybe fixed) : 0
Drift error (maybe fixed) : 0
Dropped bytes error (maybe fixed) : 0
Duplicated bytes error (maybe fixed) : 0
Inconsistency in error sectors : 0
Track 03
Filename : /Users/Rants/Desktop/Anne LeBaron - 1,2,4,3 [2010] FLAC/Disk 1/03 - Rippling With Leroy.flac
Pre-gap length : 00:06:40
Track gain : 3.39 dB
Peak : 0.450806
CRC32 hash (test run) : 601595A3
CRC32 hash : 601595A3
CRC32 hash (skip zero) : DA3E37C1
AccurateRip signature : 00000000
->Track not present in AccurateRip database.
Statistics
Read error : 0
Skipped (treated as error) : 0
Edge jitter error (maybe fixed) : 0
Atom jitter error (maybe fixed) : 0
Drift error (maybe fixed) : 0
Dropped bytes error (maybe fixed) : 0
Duplicated bytes error (maybe fixed) : 0
Inconsistency in error sectors : 0
Track 04
Filename : /Users/Rants/Desktop/Anne LeBaron - 1,2,4,3 [2010] FLAC/Disk 1/04 - Mirage.flac
Pre-gap length : 00:01:15
Track gain : 4.80 dB
Peak : 0.634583
CRC32 hash (test run) : 750C7181
CRC32 hash : 750C7181
CRC32 hash (skip zero) : A92F9F2C
AccurateRip signature : 00000000
->Track not present in AccurateRip database.
Statistics
Read error : 0
Skipped (treated as error) : 0
Edge jitter error (maybe fixed) : 0
Atom jitter error (maybe fixed) : 0
Drift error (maybe fixed) : 0
Dropped bytes error (maybe fixed) : 0
Duplicated bytes error (maybe fixed) : 0
Inconsistency in error sectors : 0
Track 05
Filename : /Users/Rants/Desktop/Anne LeBaron - 1,2,4,3 [2010] FLAC/Disk 1/05 - Deluzion.flac
Pre-gap length : 00:10:67
Track gain : 5.99 dB
Peak : 0.633392
CRC32 hash (test run) : E75C7077
CRC32 hash : E75C7077
CRC32 hash (skip zero) : DEA28E34
AccurateRip signature : 00000000
->Track not present in AccurateRip database.
Statistics
Read error : 0
Skipped (treated as error) : 0
Edge jitter error (maybe fixed) : 0
Atom jitter error (maybe fixed) : 0
Drift error (maybe fixed) : 0
Dropped bytes error (maybe fixed) : 0
Duplicated bytes error (maybe fixed) : 0
Inconsistency in error sectors : 0
Track 06
Filename : /Users/Rants/Desktop/Anne LeBaron - 1,2,4,3 [2010] FLAC/Disk 1/06 - Principles Of The Rhizome.flac
Pre-gap length : 00:06:40
Track gain : 5.15 dB
Peak : 0.700562
CRC32 hash (test run) : E50A8B9D
CRC32 hash : E50A8B9D
CRC32 hash (skip zero) : D2D6E1EA
AccurateRip signature : 00000000
->Track not present in AccurateRip database.
Statistics
Read error : 0
Skipped (treated as error) : 0
Edge jitter error (maybe fixed) : 0
Atom jitter error (maybe fixed) : 0
Drift error (maybe fixed) : 0
Dropped bytes error (maybe fixed) : 0
Duplicated bytes error (maybe fixed) : 0
Inconsistency in error sectors : 0
Track 07
Filename : /Users/Rants/Desktop/Anne LeBaron - 1,2,4,3 [2010] FLAC/Disk 1/07 - Make A Map, Not A Tracing.flac
Pre-gap length : 00:06:40
Track gain : 8.33 dB
Peak : 0.808350
CRC32 hash (test run) : 1C603FA5
CRC32 hash : 1C603FA5
CRC32 hash (skip zero) : 69AF7687
AccurateRip signature : 00000000
->Track not present in AccurateRip database.
Statistics
Read error : 0
Skipped (treated as error) : 0
Edge jitter error (maybe fixed) : 0
Atom jitter error (maybe fixed) : 0
Drift error (maybe fixed) : 0
Dropped bytes error (maybe fixed) : 0
Duplicated bytes error (maybe fixed) : 0
Inconsistency in error sectors : 0
Track 08
Filename : /Users/Rants/Desktop/Anne LeBaron - 1,2,4,3 [2010] FLAC/Disk 1/08 - Heat Wave 2.flac
Pre-gap length : 00:08:53
Track gain : 4.33 dB
Peak : 0.862793
CRC32 hash (test run) : CC560408
CRC32 hash : CC560408
CRC32 hash (skip zero) : 2E5764BD
AccurateRip signature : 00000000
->Track not present in AccurateRip database.
Statistics
Read error : 0
Skipped (treated as error) : 0
Edge jitter error (maybe fixed) : 0
Atom jitter error (maybe fixed) : 0
Drift error (maybe fixed) : 0
Dropped bytes error (maybe fixed) : 0
Duplicated bytes error (maybe fixed) : 0
Inconsistency in error sectors : 0
Track 09
Filename : /Users/Rants/Desktop/Anne LeBaron - 1,2,4,3 [2010] FLAC/Disk 1/09 - Intermezzo.flac
Pre-gap length : 00:04:27
Track gain : 4.38 dB
Peak : 0.498566
CRC32 hash (test run) : C7E5D7E6
CRC32 hash : C7E5D7E6
CRC32 hash (skip zero) : F3AB942B
AccurateRip signature : 00000000
->Track not present in AccurateRip database.
Statistics
Read error : 0
Skipped (treated as error) : 0
Edge jitter error (maybe fixed) : 0
Atom jitter error (maybe fixed) : 0
Drift error (maybe fixed) : 0
Dropped bytes error (maybe fixed) : 0
Duplicated bytes error (maybe fixed) : 0
Inconsistency in error sectors : 0
No errors occurred
End of status report
X Lossless Decoder version 20101128 (126.0)
XLD extraction logfile from 2010-12-05 00:21:23 -0800
Anne LeBaron / 1, 2, 4, 3
Used drive : MATSHITA DVD-R UJ-867 (revision HA13)
Ripper mode : CDParanoia III 10.2
Disable audio cache : OK for the drive with a cache less than 2750KiB
Make use of C2 pointers : NO
Read offset correction : 102
Max retry count : 100
Gap status : Analyzed, Appended
TOC of the extracted CD
Track | Start | Length | Start sector | End sector
---------------------------------------------------------
1 | 00:00:00 | 12:31:30 | 0 | 56354
2 | 12:31:30 | 12:01:17 | 56355 | 110446
3 | 24:32:47 | 09:09:68 | 110447 | 151689
4 | 33:42:40 | 07:28:30 | 151690 | 185319
5 | 41:10:70 | 01:41:45 | 185320 | 192939
6 | 42:52:40 | 08:10:53 | 192940 | 229742
7 | 51:03:18 | 09:00:10 | 229743 | 270252
8 | 60:03:28 | 03:05:69 | 270253 | 284196
9 | 63:09:22 | 09:08:12 | 284197 | 325308
AccurateRip Summary
Disc not found in AccurateRip DB.
All Tracks
Album gain : 3.36 dB
Peak : 0.790070
Statistics
Read error : 0
Skipped (treated as error) : 0
Edge jitter error (maybe fixed) : 0
Atom jitter error (maybe fixed) : 0
Drift error (maybe fixed) : 0
Dropped bytes error (maybe fixed) : 0
Duplicated bytes error (maybe fixed) : 0
Track 01
Filename : /Users/Rants/Desktop/Anne LeBaron - 1,2,4,3 [2010] FLAC/Disk 2/01 - Wake.flac
Pre-gap length : 00:02:00
Track gain : 1.18 dB
Peak : 0.696808
CRC32 hash (test run) : B3AE0426
CRC32 hash : B3AE0426
CRC32 hash (skip zero) : FA54E62C
AccurateRip signature : 00000000
->Track not present in AccurateRip database.
Statistics
Read error : 0
Skipped (treated as error) : 0
Edge jitter error (maybe fixed) : 0
Atom jitter error (maybe fixed) : 0
Drift error (maybe fixed) : 0
Dropped bytes error (maybe fixed) : 0
Duplicated bytes error (maybe fixed) : 0
Inconsistency in error sectors : 0
Track 02
Filename : /Users/Rants/Desktop/Anne LeBaron - 1,2,4,3 [2010] FLAC/Disk 2/02 - Stream.flac
Pre-gap length : 00:06:40
Track gain : 2.50 dB
Peak : 0.599091
CRC32 hash (test run) : 4F3E509D
CRC32 hash : 4F3E509D
CRC32 hash (skip zero) : 74CA5437
AccurateRip signature : 00000000
->Track not present in AccurateRip database.
Statistics
Read error : 0
Skipped (treated as error) : 0
Edge jitter error (maybe fixed) : 0
Atom jitter error (maybe fixed) : 0
Drift error (maybe fixed) : 0
Dropped bytes error (maybe fixed) : 0
Duplicated bytes error (maybe fixed) : 0
Inconsistency in error sectors : 0
Track 03
Filename : /Users/Rants/Desktop/Anne LeBaron - 1,2,4,3 [2010] FLAC/Disk 2/03 - Sukkulaoi Scream.flac
Pre-gap length : 00:08:53
Track gain : 6.43 dB
Peak : 0.737579
CRC32 hash (test run) : 2690BEA5
CRC32 hash : 2690BEA5
CRC32 hash (skip zero) : 85E4727C
AccurateRip signature : 00000000
->Track not present in AccurateRip database.
Statistics
Read error : 0
Skipped (treated as error) : 0
Edge jitter error (maybe fixed) : 0
Atom jitter error (maybe fixed) : 0
Drift error (maybe fixed) : 0
Dropped bytes error (maybe fixed) : 0
Duplicated bytes error (maybe fixed) : 0
Inconsistency in error sectors : 0
Track 04
Filename : /Users/Rants/Desktop/Anne LeBaron - 1,2,4,3 [2010] FLAC/Disk 2/04 - Into Something Rich And Strange.flac
Pre-gap length : 00:10:67
Track gain : 5.25 dB
Peak : 0.624298
CRC32 hash (test run) : ED32DF54
CRC32 hash : ED32DF54
CRC32 hash (skip zero) : FD2BA0FA
AccurateRip signature : 00000000
->Track not present in AccurateRip database.
Statistics
Read error : 0
Skipped (treated as error) : 0
Edge jitter error (maybe fixed) : 0
Atom jitter error (maybe fixed) : 0
Drift error (maybe fixed) : 0
Dropped bytes error (maybe fixed) : 0
Duplicated bytes error (maybe fixed) : 0
Inconsistency in error sectors : 0
Track 05
Filename : /Users/Rants/Desktop/Anne LeBaron - 1,2,4,3 [2010] FLAC/Disk 2/05 - Submerged Cavern.flac
Pre-gap length : 00:06:40
Track gain : 8.58 dB
Peak : 0.307953
CRC32 hash (test run) : 80E6824C
CRC32 hash : 80E6824C
CRC32 hash (skip zero) : 22C2BF9E
AccurateRip signature : 00000000
->Track not present in AccurateRip database.
Statistics
Read error : 0
Skipped (treated as error) : 0
Edge jitter error (maybe fixed) : 0
Atom jitter error (maybe fixed) : 0
Drift error (maybe fixed) : 0
Dropped bytes error (maybe fixed) : 0
Duplicated bytes error (maybe fixed) : 0
Inconsistency in error sectors : 0
Track 06
Filename : /Users/Rants/Desktop/Anne LeBaron - 1,2,4,3 [2010] FLAC/Disk 2/06 - Song Of Marble.flac
Pre-gap length : 00:06:40
Track gain : 5.82 dB
Peak : 0.603210
CRC32 hash (test run) : 5B011D18
CRC32 hash : 5B011D18
CRC32 hash (skip zero) : 29A78C0A
AccurateRip signature : 00000000
->Track not present in AccurateRip database.
Statistics
Read error : 0
Skipped (treated as error) : 0
Edge jitter error (maybe fixed) : 0
Atom jitter error (maybe fixed) : 0
Drift error (maybe fixed) : 0
Dropped bytes error (maybe fixed) : 0
Duplicated bytes error (maybe fixed) : 0
Inconsistency in error sectors : 0
Track 07
Filename : /Users/Rants/Desktop/Anne LeBaron - 1,2,4,3 [2010] FLAC/Disk 2/07 - Funeral Bells For Harry Partch.flac
Pre-gap length : 00:06:40
Track gain : 5.64 dB
Peak : 0.680084
CRC32 hash (test run) : 4EC652D8
CRC32 hash : 4EC652D8
CRC32 hash (skip zero) : 577C31D4
AccurateRip signature : 00000000
->Track not present in AccurateRip database.
Statistics
Read error : 0
Skipped (treated as error) : 0
Edge jitter error (maybe fixed) : 0
Atom jitter error (maybe fixed) : 0
Drift error (maybe fixed) : 0
Dropped bytes error (maybe fixed) : 0
Duplicated bytes error (maybe fixed) : 0
Inconsistency in error sectors : 0
Track 08
Filename : /Users/Rants/Desktop/Anne LeBaron - 1,2,4,3 [2010] FLAC/Disk 2/08 - Full Fathom Funayurei.flac
Pre-gap length : 00:06:40
Track gain : 7.79 dB
Peak : 0.534332
CRC32 hash (test run) : 2E75B600
CRC32 hash : 2E75B600
CRC32 hash (skip zero) : BC99940F
AccurateRip signature : 00000000
->Track not present in AccurateRip database.
Statistics
Read error : 0
Skipped (treated as error) : 0
Edge jitter error (maybe fixed) : 0
Atom jitter error (maybe fixed) : 0
Drift error (maybe fixed) : 0
Dropped bytes error (maybe fixed) : 0
Duplicated bytes error (maybe fixed) : 0
Inconsistency in error sectors : 0
Track 09
Filename : /Users/Rants/Desktop/Anne LeBaron - 1,2,4,3 [2010] FLAC/Disk 2/09 - Lagniappeпјљ Hourglass Of Stars.flac
Pre-gap length : 00:08:54
Track gain : 8.64 dB
Peak : 0.790070
CRC32 hash (test run) : 48F133FB
CRC32 hash : 48F133FB
CRC32 hash (skip zero) : 1360F575
AccurateRip signature : 00000000
->Track not present in AccurateRip database.
Statistics
Read error : 0
Skipped (treated as error) : 0
Edge jitter error (maybe fixed) : 0
Atom jitter error (maybe fixed) : 0
Drift error (maybe fixed) : 0
Dropped bytes error (maybe fixed) : 0
Duplicated bytes error (maybe fixed) : 0
Inconsistency in error sectors : 0
No errors occurred
End of status report
 
Содержание индексной карты (.CUE)
TITLE "1, 2, 4, 3"
PERFORMER "Anne LeBaron"
REM GENRE "1. Exclaim/Pop Matters/Tiny Mix Tapes"
REM DATE 2010
REM DISCNUMBER 1
REM TOTALDISCS 2
REM DISCID 8E0D8209
FILE "01 - Heat Wave.wav" WAVE
TRACK 01 AUDIO
TITLE "Heat Wave"
PERFORMER "Anne LeBaron"
SONGWRITER "LeBaron, Anne (1953 - )"
ISRC US29K1023601
INDEX 01 00:00:00
TRACK 02 AUDIO
TITLE "Succulent Blues"
PERFORMER "Anne LeBaron"
SONGWRITER "LeBaron, Anne (1953 - )"
ISRC US29K1023602
INDEX 00 04:33:25
FILE "02 - Succulent Blues.wav" WAVE
INDEX 01 00:00:00
TRACK 03 AUDIO
TITLE "Rippling With Leroy"
PERFORMER "Anne LeBaron"
SONGWRITER "LeBaron, Anne (1953 - )"
ISRC US29K1023603
INDEX 00 10:05:40
FILE "03 - Rippling With Leroy.wav" WAVE
INDEX 01 00:00:00
TRACK 04 AUDIO
TITLE "Mirage"
PERFORMER "Anne LeBaron"
SONGWRITER "LeBaron, Anne (1953 - )"
ISRC US29K1023604
INDEX 00 08:14:66
FILE "04 - Mirage.wav" WAVE
INDEX 01 00:00:00
TRACK 05 AUDIO
TITLE "Deluzion"
PERFORMER "Anne LeBaron"
SONGWRITER "LeBaron, Anne (1953 - )"
ISRC US29K1023605
INDEX 00 06:53:34
FILE "05 - Deluzion.wav" WAVE
INDEX 01 00:00:00
TRACK 06 AUDIO
TITLE "Principles Of The Rhizome"
PERFORMER "Anne LeBaron"
SONGWRITER "LeBaron, Anne (1953 - )"
ISRC US29K1023606
INDEX 00 10:43:40
FILE "06 - Principles Of The Rhizome.wav" WAVE
INDEX 01 00:00:00
TRACK 07 AUDIO
TITLE "Make A Map, Not A Tracing"
PERFORMER "Anne LeBaron"
SONGWRITER "LeBaron, Anne (1953 - )"
ISRC US29K1023607
INDEX 00 03:56:08
FILE "07 - Make A Map, Not A Tracing.wav" WAVE
INDEX 01 00:00:00
TRACK 08 AUDIO
TITLE "Heat Wave 2"
PERFORMER "Anne LeBaron"
SONGWRITER "LeBaron, Anne (1953 - )"
ISRC US29K1023608
INDEX 00 05:39:59
FILE "08 - Heat Wave 2.wav" WAVE
INDEX 01 00:00:00
TRACK 09 AUDIO
TITLE "Intermezzo"
PERFORMER "Anne LeBaron"
SONGWRITER "LeBaron, Anne (1953 - )"
ISRC US29K1023609
INDEX 00 03:37:49
FILE "09 - Intermezzo.wav" WAVE
INDEX 01 00:00:00
TITLE "1, 2, 4, 3"
PERFORMER "Anne LeBaron"
REM GENRE "1. Exclaim/Pop Matters/Tiny Mix Tapes"
REM DATE "2010"
REM DISCNUMBER 2
REM TOTALDISCS 2
REM DISCID 7A10F109
FILE "01 - Wake.wav" WAVE
TRACK 01 AUDIO
TITLE "Wake"
PERFORMER "Anne LeBaron"
SONGWRITER "LeBaron, Anne (1953 - )"
INDEX 01 00:00:00
TRACK 02 AUDIO
TITLE "Stream"
PERFORMER "Anne LeBaron"
SONGWRITER "LeBaron, Anne (1953 - )"
ISRC US29K1023611
INDEX 00 12:24:65
FILE "02 - Stream.wav" WAVE
INDEX 01 00:00:00
TRACK 03 AUDIO
TITLE "Sukkulaoi Scream"
PERFORMER "Anne LeBaron"
SONGWRITER "LeBaron, Anne (1953 - )"
ISRC US29K1023612
INDEX 00 11:52:39
FILE "03 - Sukkulaoi Scream.wav" WAVE
INDEX 01 00:00:00
TRACK 04 AUDIO
TITLE "Into Something Rich And Strange"
PERFORMER "Anne LeBaron"
SONGWRITER "LeBaron, Anne (1953 - )"
ISRC US29K1023613
INDEX 00 08:59:01
FILE "04 - Into Something Rich And Strange.wav" WAVE
INDEX 01 00:00:00
TRACK 05 AUDIO
TITLE "Submerged Cavern"
PERFORMER "Anne LeBaron"
SONGWRITER "LeBaron, Anne (1953 - )"
ISRC US29K1023614
INDEX 00 07:21:65
FILE "05 - Submerged Cavern.wav" WAVE
INDEX 01 00:00:00
TRACK 06 AUDIO
TITLE "Song Of Marble"
PERFORMER "Anne LeBaron"
SONGWRITER "LeBaron, Anne (1953 - )"
ISRC US29K1023615
INDEX 00 01:35:05
FILE "06 - Song Of Marble.wav" WAVE
INDEX 01 00:00:00
TRACK 07 AUDIO
TITLE "Funeral Bells For Harry Partch"
PERFORMER "Anne LeBaron"
SONGWRITER "LeBaron, Anne (1953 - )"
ISRC US29K1023616
INDEX 00 08:04:13
FILE "07 - Funeral Bells For Harry Partch.wav" WAVE
INDEX 01 00:00:00
TRACK 08 AUDIO
TITLE "Full Fathom Funayurei"
PERFORMER "Anne LeBaron"
SONGWRITER "LeBaron, Anne (1953 - )"
ISRC US29K1023617
INDEX 00 08:53:45
FILE "08 - Full Fathom Funayurei.wav" WAVE
INDEX 01 00:00:00
TRACK 09 AUDIO
TITLE "Lagniappe: Hourglass Of Stars"
PERFORMER "Anne LeBaron"
SONGWRITER "LeBaron, Anne (1953 - )"
ISRC US29K1023618
INDEX 00 02:57:15
FILE "09 - Lagniappeпјљ Hourglass Of Stars.wav" WAVE
INDEX 01 00:00:00
 
Состав
Anne LeBaron-harp, harp with live electronics, flute, percussion
Chris Heenan-alto saxophone, bass clarinet, alto saxophone
Earl Howard-electronics
Georg Graewe-piano
John Lindberg-bass
Kanoko Nishi-koto
Kiku Day-shakuhachi
Kristin Haraldsdottir, Leroy Jenkins-violin, amplified violin
Nathan Smith-clarinet, bass clarinet
Paul Rutherford-trombone
Ronit Kirchman-violin, mouth whistle
Torsten Mueller-bass
Wolfgang Fuchs-contrabass clarinet
Any questions -> support@pro-jazz.com. По всем вопросам пишите -> support@pro-jazz.com
06:28
156
Нет комментариев. Ваш будет первым!