Вы используете незарегистрированную версию компонента "Вкладки"!

Поиск

(Free Jazz, Avant-Garde Jazz) Borah Bergman and Roscoe Mitchell - The Italian Concert - 2002, FLAC (tracks+.cue) lossless

Треклист:
Borah Bergman and Roscoe Mitchell - The Italian Concert
Жанр: Free Jazz, Avant-Garde Jazz
Страна-производитель диска: Italy
Год издания диска: 2002
Издатель (лейбл): Soul Note Records
Номер по каталогу: SN 121 342-2
Страна: Italy
Аудио кодек: FLAC (*.flac)
Тип рипа: tracks+.cue
Битрейт аудио: lossless
Продолжительность: 48:41
Источник (релизер): собственный рип с оригинального диска.
Наличие сканов в содержимом раздачи: да
Треклист:
01. AT ANY GIVEN MOMENT 17:00
02. RIDING THE CREST 9:02
03. WHEN THE NIGHT TURNS AROUND 7:31
04. GRAB IT 5:19
05. FIRST PIECE 4:06
06. TIDES 5:43
 
Лог создания рипа
Exact Audio Copy V0.99 prebeta 5 from 4. May 2009
EAC extraction logfile from 6. December 2010, 22:18
Borah Bergman and Roscoe Mitchell / The Italian Concert
Used drive : TSSTcorpCDDVDW SH-S222A Adapter: 1 ID: 0
Read mode : Secure
Utilize accurate stream : Yes
Defeat audio cache : Yes
Make use of C2 pointers : No
Read offset correction : 6
Overread into Lead-In and Lead-Out : No
Fill up missing offset samples with silence : Yes
Delete leading and trailing silent blocks : No
Null samples used in CRC calculations : Yes
Used interface : Native Win32 interface for Win NT & 2000
Gap handling : Appended to previous track
Used output format : User Defined Encoder
Selected bitrate : 768 kBit/s
Quality : High
Add ID3 tag : No
Command line compressor : C:\tool\Audio\Exact Audio Copy\FLAC\FLAC.EXE
Additional command line options : -V -8 -T "ARTIST=%a" -T "TITLE=%t" -T "ALBUM=%g" -T "TRACKNUMBER=%n" -T "GENRE=%m" %s
TOC of the extracted CD
Track | Start | Length | Start sector | End sector
---------------------------------------------------------
1 | 0:00.00 | 17:00.35 | 0 | 76534
2 | 17:00.35 | 9:02.12 | 76535 | 117196
3 | 26:02.47 | 7:31.53 | 117197 | 151074
4 | 33:34.25 | 5:19.52 | 151075 | 175051
5 | 38:54.02 | 4:06.13 | 175052 | 193514
6 | 43:00.15 | 5:43.50 | 193515 | 219289
Track 1
Filename C:\! RUTRACKER\ru up\Borah Bergman - The Italian Concert\01 - At Any Given Moment.wav
Pre-gap length 0:00:02.00
Peak level 99.9 %
Track quality 100.0 %
Test CRC F5283416
Copy CRC F5283416
Track not present in AccurateRip database
Copy OK
Track 2
Filename C:\! RUTRACKER\ru up\Borah Bergman - The Italian Concert\02 - Riding The Crest.wav
Peak level 99.9 %
Track quality 100.0 %
Test CRC EBFE6120
Copy CRC EBFE6120
Track not present in AccurateRip database
Copy OK
Track 3
Filename C:\! RUTRACKER\ru up\Borah Bergman - The Italian Concert\03 - When The Night Turns Around.wav
Peak level 99.9 %
Track quality 100.0 %
Test CRC 97E49DCF
Copy CRC 97E49DCF
Track not present in AccurateRip database
Copy OK
Track 4
Filename C:\! RUTRACKER\ru up\Borah Bergman - The Italian Concert\04 - Grab It.wav
Peak level 100.0 %
Track quality 100.0 %
Test CRC 845796AF
Copy CRC 845796AF
Track not present in AccurateRip database
Copy OK
Track 5
Filename C:\! RUTRACKER\ru up\Borah Bergman - The Italian Concert\05 - First Piece.wav
Peak level 99.9 %
Track quality 100.0 %
Test CRC BF5B6BF5
Copy CRC BF5B6BF5
Track not present in AccurateRip database
Copy OK
Track 6
Filename C:\! RUTRACKER\ru up\Borah Bergman - The Italian Concert\06 - Tides.wav
Peak level 99.9 %
Track quality 99.9 %
Test CRC 01605A44
Copy CRC 01605A44
Track not present in AccurateRip database
Copy OK
None of the tracks are present in the AccurateRip database
No errors occurred
End of status report
 
Содержание индексной карты (.CUE)
REM GENRE "Free Jazz"
REM DATE 1995
REM DISCID 3F0B6B06
REM COMMENT "ExactAudioCopy v0.99pb5"
PERFORMER "Borah Bergman and Roscoe Mitchell"
TITLE "The Italian Concert"
FILE "01 - At Any Given Moment.wav" WAVE
TRACK 01 AUDIO
TITLE "At Any Given Moment"
PERFORMER "Borah Bergman and Roscoe Mitchell"
INDEX 01 00:00:00
FILE "02 - Riding The Crest.wav" WAVE
TRACK 02 AUDIO
TITLE "Riding The Crest"
PERFORMER "Borah Bergman and Roscoe Mitchell"
INDEX 01 00:00:00
FILE "03 - When The Night Turns Around.wav" WAVE
TRACK 03 AUDIO
TITLE "When The Night Turns Around"
PERFORMER "Borah Bergman and Roscoe Mitchell"
INDEX 01 00:00:00
FILE "04 - Grab It.wav" WAVE
TRACK 04 AUDIO
TITLE "Grab It"
PERFORMER "Borah Bergman and Roscoe Mitchell"
INDEX 01 00:00:00
FILE "05 - First Piece.wav" WAVE
TRACK 05 AUDIO
TITLE "First Piece"
PERFORMER "Borah Bergman and Roscoe Mitchell"
INDEX 01 00:00:00
FILE "06 - Tides.wav" WAVE
TRACK 06 AUDIO
TITLE "Tides"
PERFORMER "Borah Bergman and Roscoe Mitchell"
INDEX 01 00:00:00
Доп. информация:
Tracks # 1, 2, 3, 4 recorded Live in Bolzano on June 30, 1995
Tracks # 5, 6 recorded at Seltzer Sound in New York on December 19, 1994 (see: First Meeting CD)
 
Состав
Borah Bergman - piano
Roscoe Mitchell - alto sax, soprano sax
Any questions -> support@pro-jazz.com. По всем вопросам пишите -> support@pro-jazz.com
06:27
190
Нет комментариев. Ваш будет первым!