Вы используете незарегистрированную версию компонента "Вкладки"!

Поиск

(Free Improvisation / Avant-Garde) Golden Atoms (Michael Marcus / Ted Daniel) - Duology - 2008, FLAC (image+.cue), lossless

(Free Improvisation / Avant-Garde) Golden Atoms (Michael Marcus / Ted Daniel) - Duology - 2008, FLAC (image+.cue), lossless
Треклист:
Golden Atoms (Michael Marcus / Ted Daniel) - Duology

Жанр: Free Improvisation / Avant-Garde
Год выпуска диска: 2008
Производитель диска: Soul Note 12 1483; Italy
Аудио кодек: FLAC
Тип рипа: image+.cue
Битрейт аудио: lossless
Продолжительность: 44:41
Michael Marcus: Bb clarinet
Ted Daniel: trumpet
1. Atoms of the Heart
2. Ritual
3. As If
4. Qusim
5. Seeds of Consciousness
6. Brotherhood in Flight
7. Mr. Albert Ayler
8. The Probe
9. Night Parade
10. Un Poquito
11. Alternate Universe
12. Unanimity
 
AAJ Review
Michael Marcus (Bb clarinet) and Ted Daniel (trumpet) have long been distinctive improvisers. Both have made a mark not only on the free jazz scene, but also with mainstream bands. Whatever the setting, they have found the space to add their own impulses to enrich the music. And so, of the many duos that have popped up in the world of jazz, this one makes a marked impression. Marcus and Daniel create intuitive nuggets as they play a dozen tunes that turn on the excitement with their arch melodic presence, the continuum of invention that spins on the wheels of the chemistry between them and the circumscribing arc of expression that sees the core of melody pulse within the hub of freedom.
The two make a quick impression as they cut to the core with "Atoms of the Heart." The mood is abstract but they filter it through swift melodic lines, an amiable conversation, some thrust and parry and a divergence that sees them furrow individualistic lines. They tie it all up splendidly with their sense of harmony, dynamics and compact logic.
The duo shifts trajectory and mood for "Ritual." The advent is laid back with the feel of chamber music washing across its melody. There is an incipient beauty in the shimmering ensemble playing, the duo bouncing off each other and in the deeper groove that emphasizes the Middle Eastern melody. It's a consummate performance.
A short, yet eloquent, tribute goes out to "Mr. Albert Ayler." It is an interesting study as Marcus strikes up the melody in long, billowing notes while Daniel goes off on a tangent before they lock horns, casting off the fetters of composition for a cutting edge exchange.
Open-ended improvisation comes upfront and makes a hard-hitting impact on several tunes including "Alternate Universe." They feed from the founts of their imagination and spin singular ideas. In doing so they show why they have long been persuasive movers on the improvised music scene.
~ Jerry D'Souza, AAJ
 
EAC Report
Exact Audio Copy V0.99 prebeta 4 from 23. January 2008
EAC extraction logfile from 21. March 2009, 13:05
Duology / Golden Atoms
Used drive : TSSTcorpCD/DVDW SH-S182M Adapter: 2 ID: 1
Read mode : Secure
Utilize accurate stream : Yes
Defeat audio cache : Yes
Make use of C2 pointers : No
Read offset correction : 6
Overread into Lead-In and Lead-Out : No
Fill up missing offset samples with silence : Yes
Delete leading and trailing silent blocks : No
Null samples used in CRC calculations : Yes
Used interface : Installed external ASPI interface
Used output format : User Defined Encoder
Selected bitrate : 1024 kBit/s
Quality : High
Add ID3 tag : No
Command line compressor : C:\Program Files\Exact Audio Copy\FLAC\FLAC.EXE
Additional command line options : -8 -V -T "ARTIST=%a" -T "TITLE=%t" -T "ALBUM=%g" -T "DATE=%y" -T "TRACKNUMBER=%n" -T "GENRE=%m" -T "COMMENT=%e" %s -o %d
TOC of the extracted CD
Track | Start | Length | Start sector | End sector
---------------------------------------------------------
1 | 0:00.00 | 5:37.13 | 0 | 25287
2 | 5:37.13 | 3:21.33 | 25288 | 40395
3 | 8:58.46 | 2:55.60 | 40396 | 53580
4 | 11:54.31 | 5:20.43 | 53581 | 77623
5 | 17:14.74 | 7:01.33 | 77624 | 109231
6 | 24:16.32 | 1:34.26 | 109232 | 116307
7 | 25:50.58 | 2:12.59 | 116308 | 126266
8 | 28:03.42 | 7:11.28 | 126267 | 158619
9 | 35:14.70 | 2:40.18 | 158620 | 170637
10 | 37:55.13 | 1:03.05 | 170638 | 175367
11 | 38:58.18 | 3:39.63 | 175368 | 191855
12 | 42:38.06 | 2:02.52 | 191856 | 201057
Range status and errors
Selected range
Filename C:\Documents and Settings\Igor\My Documents\My Music\eac\Duology - Golden Atoms.wav
Peak level 99.9 %
Range quality 99.9 %
Test CRC 3EC6B60C
Copy CRC 3EC6B60C
Copy OK
No errors occurred
AccurateRip summary
Track 1 not present in database
Track 2 not present in database
Track 3 not present in database
Track 4 not present in database
Track 5 not present in database
Track 6 not present in database
Track 7 not present in database
Track 8 not present in database
Track 9 not present in database
Track 10 not present in database
Track 11 not present in database
Track 12 not present in database
None of the tracks are present in the AccurateRip database
End of status report

рип собственный
Any questions -> support@pro-jazz.com. По всем вопросам пишите -> support@pro-jazz.com
02:49
117
Нет комментариев. Ваш будет первым!