Вы используете незарегистрированную версию компонента "Вкладки"!

Поиск

(jazz, avant-garde) Russ Lossing - As It Grows (2002), FLAC (tracks+.cue), lossless

(jazz, avant-garde) Russ Lossing - As It Grows (2002), FLAC (tracks+.cue), lossless
Треклист:


Russ Lossing - As It Grows
Жанр: jazz, avante-garde
Год выпуска: 2002
Формат: FLAC (tracks+.cue)
Битрейт аудио: lossless
Продолжительность
Источник: ed2k
Russ Lossing, piano
Ed Schuller, bass
Paul Motian, drums

tracks

01 - Motion Units
02 - Coyote Jumps
03 - Nagual
04 - Verse
05 - No Trace
06 - As It Grows
07 - Nothing Exists Without
08 - Form And Color
09 - Other Beings
10 - Naturalness


 
.log
X Lossless Decoder version 20090320 (105.1)
XLD extraction logfile from 2009-07-13 00:32:35 +0200
Russ Lossing, Ed Schuller, Paul Motian / As It Grows
Used drive : MATSHITA DVD-R UJ-868 (revision KA14)
Use cdparanoia mode : YES (CDParanoia III 10.2 engine)
Disable audio cache : OK for the drive with cache less than 2750KB
Make use of C2 pointers : NO
Read offset correction : 102
Max retry count : 100
TOC of the extracted CD
Track | Start | Length | Start sector | End sector
---------------------------------------------------------
1 | 00:00:00 | 03:30:49 | 0 | 15798
2 | 03:30:49 | 05:50:04 | 15799 | 42052
3 | 09:20:53 | 07:42:32 | 42053 | 76734
4 | 17:03:10 | 07:52:53 | 76735 | 112187
5 | 24:55:63 | 05:44:00 | 112188 | 137987
6 | 30:39:63 | 02:52:64 | 137988 | 150951
7 | 33:32:52 | 03:31:48 | 150952 | 166824
8 | 37:04:25 | 05:50:00 | 166825 | 193074
9 | 42:54:25 | 04:53:17 | 193075 | 215066
10 | 47:47:42 | 03:30:32 | 215067 | 230848
Track 01
Filename : /Volumes/LACIE500/Shared Music/Russ Lossing - As It Grows (2002) FLAC/01 Russ Lossing, Ed Schuller, Paul Motian - Motion Units.flac
/Volumes/LACIE500/Shared Music/Russ Lossing - As It Grows (2002) FLAC/01 Russ Lossing, Ed Schuller, Paul Motian - Motion Units.mp3
CRC32 hash (test run) : 42463410
CRC32 hash : 42463410
CRC32 hash (skip zero) : 9FD26134
AccurateRip signature : AF6F6E59
->Track not present in AccurateRip database.
Statistics
Read error : 0
Skipped (treated as error) : 0
Edge jitter error (maybe fixed) : 0
Atom jitter error (maybe fixed) : 0
Drift error (maybe fixed) : 0
Dropped bytes error (maybe fixed) : 0
Duplicated bytes error (maybe fixed) : 0
Inconsistency in error sectors : 0
Track 02
Filename : /Volumes/LACIE500/Shared Music/Russ Lossing - As It Grows (2002) FLAC/02 Russ Lossing, Ed Schuller, Paul Motian - Coyote Jumps.flac
/Volumes/LACIE500/Shared Music/Russ Lossing - As It Grows (2002) FLAC/02 Russ Lossing, Ed Schuller, Paul Motian - Coyote Jumps.mp3
CRC32 hash (test run) : EC183DE8
CRC32 hash : EC183DE8
CRC32 hash (skip zero) : 34CA2F98
AccurateRip signature : 78267508
->Track not present in AccurateRip database.
Statistics
Read error : 0
Skipped (treated as error) : 0
Edge jitter error (maybe fixed) : 0
Atom jitter error (maybe fixed) : 0
Drift error (maybe fixed) : 0
Dropped bytes error (maybe fixed) : 0
Duplicated bytes error (maybe fixed) : 0
Inconsistency in error sectors : 0
Track 03
Filename : /Volumes/LACIE500/Shared Music/Russ Lossing - As It Grows (2002) FLAC/03 Russ Lossing, Ed Schuller, Paul Motian - Nagual.flac
/Volumes/LACIE500/Shared Music/Russ Lossing - As It Grows (2002) FLAC/03 Russ Lossing, Ed Schuller, Paul Motian - Nagual.mp3
CRC32 hash (test run) : E8ADE64D
CRC32 hash : E8ADE64D
CRC32 hash (skip zero) : ECF1266D
AccurateRip signature : 7A31807C
->Track not present in AccurateRip database.
Statistics
Read error : 0
Skipped (treated as error) : 0
Edge jitter error (maybe fixed) : 0
Atom jitter error (maybe fixed) : 0
Drift error (maybe fixed) : 0
Dropped bytes error (maybe fixed) : 0
Duplicated bytes error (maybe fixed) : 0
Inconsistency in error sectors : 0
Track 04
Filename : /Volumes/LACIE500/Shared Music/Russ Lossing - As It Grows (2002) FLAC/04 Russ Lossing, Ed Schuller, Paul Motian - Verse.flac
/Volumes/LACIE500/Shared Music/Russ Lossing - As It Grows (2002) FLAC/04 Russ Lossing, Ed Schuller, Paul Motian - Verse.mp3
CRC32 hash (test run) : B0754EA0
CRC32 hash : B0754EA0
CRC32 hash (skip zero) : 432BC576
AccurateRip signature : 1B93E3C8
->Track not present in AccurateRip database.
Statistics
Read error : 0
Skipped (treated as error) : 0
Edge jitter error (maybe fixed) : 0
Atom jitter error (maybe fixed) : 0
Drift error (maybe fixed) : 0
Dropped bytes error (maybe fixed) : 0
Duplicated bytes error (maybe fixed) : 0
Inconsistency in error sectors : 0
Track 05
Filename : /Volumes/LACIE500/Shared Music/Russ Lossing - As It Grows (2002) FLAC/05 Russ Lossing, Ed Schuller, Paul Motian - No Trace.flac
/Volumes/LACIE500/Shared Music/Russ Lossing - As It Grows (2002) FLAC/05 Russ Lossing, Ed Schuller, Paul Motian - No Trace.mp3
CRC32 hash (test run) : 892996EB
CRC32 hash : 892996EB
CRC32 hash (skip zero) : A7FC5A55
AccurateRip signature : 304DF389
->Track not present in AccurateRip database.
Statistics
Read error : 0
Skipped (treated as error) : 0
Edge jitter error (maybe fixed) : 0
Atom jitter error (maybe fixed) : 0
Drift error (maybe fixed) : 0
Dropped bytes error (maybe fixed) : 0
Duplicated bytes error (maybe fixed) : 0
Inconsistency in error sectors : 0
Track 06
Filename : /Volumes/LACIE500/Shared Music/Russ Lossing - As It Grows (2002) FLAC/06 Russ Lossing, Ed Schuller, Paul Motian - As It Grows.flac
/Volumes/LACIE500/Shared Music/Russ Lossing - As It Grows (2002) FLAC/06 Russ Lossing, Ed Schuller, Paul Motian - As It Grows.mp3
CRC32 hash (test run) : 7F17A8D7
CRC32 hash : 7F17A8D7
CRC32 hash (skip zero) : F2C1AB1E
AccurateRip signature : 309BE707
->Track not present in AccurateRip database.
Statistics
Read error : 0
Skipped (treated as error) : 0
Edge jitter error (maybe fixed) : 0
Atom jitter error (maybe fixed) : 0
Drift error (maybe fixed) : 0
Dropped bytes error (maybe fixed) : 0
Duplicated bytes error (maybe fixed) : 0
Inconsistency in error sectors : 0
Track 07
Filename : /Volumes/LACIE500/Shared Music/Russ Lossing - As It Grows (2002) FLAC/07 Russ Lossing, Ed Schuller, Paul Motian - Nothing Exists Without.flac
/Volumes/LACIE500/Shared Music/Russ Lossing - As It Grows (2002) FLAC/07 Russ Lossing, Ed Schuller, Paul Motian - Nothing Exists Without.mp3
CRC32 hash (test run) : 8263E0D4
CRC32 hash : 8263E0D4
CRC32 hash (skip zero) : 0650FD02
AccurateRip signature : A130D9A7
->Track not present in AccurateRip database.
Statistics
Read error : 0
Skipped (treated as error) : 0
Edge jitter error (maybe fixed) : 0
Atom jitter error (maybe fixed) : 0
Drift error (maybe fixed) : 0
Dropped bytes error (maybe fixed) : 0
Duplicated bytes error (maybe fixed) : 0
Inconsistency in error sectors : 0
Track 08
Filename : /Volumes/LACIE500/Shared Music/Russ Lossing - As It Grows (2002) FLAC/08 Russ Lossing, Ed Schuller, Paul Motian - Form And Color.flac
/Volumes/LACIE500/Shared Music/Russ Lossing - As It Grows (2002) FLAC/08 Russ Lossing, Ed Schuller, Paul Motian - Form And Color.mp3
CRC32 hash (test run) : BF482075
CRC32 hash : BF482075
CRC32 hash (skip zero) : 81F77B39
AccurateRip signature : 48A6E278
->Track not present in AccurateRip database.
Statistics
Read error : 0
Skipped (treated as error) : 0
Edge jitter error (maybe fixed) : 0
Atom jitter error (maybe fixed) : 0
Drift error (maybe fixed) : 0
Dropped bytes error (maybe fixed) : 0
Duplicated bytes error (maybe fixed) : 0
Inconsistency in error sectors : 0
Track 09
Filename : /Volumes/LACIE500/Shared Music/Russ Lossing - As It Grows (2002) FLAC/09 Russ Lossing, Ed Schuller, Paul Motian - Other Beings.flac
/Volumes/LACIE500/Shared Music/Russ Lossing - As It Grows (2002) FLAC/09 Russ Lossing, Ed Schuller, Paul Motian - Other Beings.mp3
CRC32 hash (test run) : C87919F4
CRC32 hash : C87919F4
CRC32 hash (skip zero) : 338FAB57
AccurateRip signature : BC72819C
->Track not present in AccurateRip database.
Statistics
Read error : 0
Skipped (treated as error) : 0
Edge jitter error (maybe fixed) : 0
Atom jitter error (maybe fixed) : 0
Drift error (maybe fixed) : 0
Dropped bytes error (maybe fixed) : 0
Duplicated bytes error (maybe fixed) : 0
Inconsistency in error sectors : 0
Track 10
Filename : /Volumes/LACIE500/Shared Music/Russ Lossing - As It Grows (2002) FLAC/10 Russ Lossing, Ed Schuller, Paul Motian - Naturalness.flac
/Volumes/LACIE500/Shared Music/Russ Lossing - As It Grows (2002) FLAC/10 Russ Lossing, Ed Schuller, Paul Motian - Naturalness.mp3
CRC32 hash (test run) : 40916452
CRC32 hash : 40916452
CRC32 hash (skip zero) : B2B3B658
AccurateRip signature : 7CCA56DC
->Track not present in AccurateRip database.
Statistics
Read error : 0
Skipped (treated as error) : 0
Edge jitter error (maybe fixed) : 0
Atom jitter error (maybe fixed) : 0
Drift error (maybe fixed) : 0
Dropped bytes error (maybe fixed) : 0
Duplicated bytes error (maybe fixed) : 0
Inconsistency in error sectors : 0
No errors occurred
End of status report
 
.cue
TITLE "As It Grows"
PERFORMER "Russ Lossing, Ed Schuller, Paul Motian"
REM GENRE "Jazz"
REM DATE 2004
FILE "01 Russ Lossing, Ed Schuller, Paul Motian - Motion Units.wav" WAVE
TRACK 01 AUDIO
TITLE "Motion Units"
ISRC CH1310300659
INDEX 01 00:00:00
FILE "02 Russ Lossing, Ed Schuller, Paul Motian - Coyote Jumps.wav" WAVE
TRACK 02 AUDIO
TITLE "Coyote Jumps"
ISRC CH1310300660
INDEX 01 00:00:00
FILE "03 Russ Lossing, Ed Schuller, Paul Motian - Nagual.wav" WAVE
TRACK 03 AUDIO
TITLE "Nagual"
ISRC CH1310300661
INDEX 01 00:00:00
FILE "04 Russ Lossing, Ed Schuller, Paul Motian - Verse.wav" WAVE
TRACK 04 AUDIO
TITLE "Verse"
ISRC CH1310300662
INDEX 01 00:00:00
FILE "05 Russ Lossing, Ed Schuller, Paul Motian - No Trace.wav" WAVE
TRACK 05 AUDIO
TITLE "No Trace"
ISRC CH1310300663
INDEX 01 00:00:00
FILE "06 Russ Lossing, Ed Schuller, Paul Motian - As It Grows.wav" WAVE
TRACK 06 AUDIO
TITLE "As It Grows"
ISRC CH1310300664
INDEX 01 00:00:00
FILE "07 Russ Lossing, Ed Schuller, Paul Motian - Nothing Exists Without.wav" WAVE
TRACK 07 AUDIO
TITLE "Nothing Exists Without"
ISRC CH1310300665
INDEX 01 00:00:00
FILE "08 Russ Lossing, Ed Schuller, Paul Motian - Form And Color.wav" WAVE
TRACK 08 AUDIO
TITLE "Form And Color"
ISRC CH1310300666
INDEX 01 00:00:00
FILE "09 Russ Lossing, Ed Schuller, Paul Motian - Other Beings.wav" WAVE
TRACK 09 AUDIO
TITLE "Other Beings"
ISRC CH1310300667
INDEX 01 00:00:00
FILE "10 Russ Lossing, Ed Schuller, Paul Motian - Naturalness.wav" WAVE
TRACK 10 AUDIO
TITLE "Naturalness"
ISRC CH1310300668
INDEX 01 00:00:00

другие релизы
По всем вопросам пишите личное сообщение пользователю M0p94ok.
02:50
121
Нет комментариев. Ваш будет первым!