Вы используете незарегистрированную версию компонента "Вкладки"!

Поиск

(Free Improvisation / Avant-Garde) Rob Brown / Andrew Barker Duo - Live in Chicago - 2008, FLAC (image+.cue), lossless

Треклист:
Rob Brown / Andrew Barker Duo - Live in Chicago

Жанр: Free Improvisation / Avant-Garde
Год выпуска диска: 2008
Производитель диска: Ruby Red RR 17; Italy
Аудио кодек: FLAC
Тип рипа: image+.cue
Битрейт аудио: lossless
Продолжительность: 1:16:08
Rob Brown: alto saxophone
Andrew Barker: drums
1. Improvisation One
2. Improvisation Two
3. Improvisation Three
4. Improvisation Four
5. Improvisation Five
Recorded live at the Empty Bottle, June 6th 2000 by the late, great archivist Malachi Ritscher.
 
EAC Report
Exact Audio Copy V0.99 prebeta 5 from 4. May 2009
EAC extraction logfile from 26. December 2009, 12:41
Rob Brown / Andrew Barker Duo / Live in Chicago
Used drive : hp DVD-RAM GH40L Adapter: 0 ID: 1
Read mode : Secure
Utilize accurate stream : Yes
Defeat audio cache : Yes
Make use of C2 pointers : No
Read offset correction : 667
Overread into Lead-In and Lead-Out : No
Fill up missing offset samples with silence : Yes
Delete leading and trailing silent blocks : No
Null samples used in CRC calculations : Yes
Used interface : Installed external ASPI interface
Used output format : User Defined Encoder
Selected bitrate : 1024 kBit/s
Quality : High
Add ID3 tag : No
Command line compressor : C:\Program Files\Exact Audio Copy\Flac\flac.exe
Additional command line options : -6 -V -T "ARTIST=%a" -T "TITLE=%t" -T "ALBUM=%g" -T "DATE=%y" -T "TRACKNUMBER=%n" -T "GENRE=%m" -T "COMMENT=EAC FLAC -6" %s
TOC of the extracted CD
Track | Start | Length | Start sector | End sector
---------------------------------------------------------
1 | 0:00.00 | 28:11.32 | 0 | 126856
2 | 28:11.32 | 12:12.45 | 126857 | 181801
3 | 40:24.02 | 10:35.73 | 181802 | 229499
4 | 51:00.00 | 16:35.59 | 229500 | 304183
5 | 67:35.59 | 8:32.47 | 304184 | 342630
Range status and errors
Selected range
Filename C:\Users\Igor\Music\eac\Rob Brown & Andrew Barker Duo - Live in Chicago.wav
Peak level 100.0 %
Range quality 100.0 %
Test CRC EA65358B
Copy CRC EA65358B
Copy OK
No errors occurred
AccurateRip summary
Track 1 not present in database
Track 2 not present in database
Track 3 not present in database
Track 4 not present in database
Track 5 not present in database
None of the tracks are present in the AccurateRip database
End of status report

рип собственный
По всем вопросам пишите личное сообщение пользователю M0p94ok.
02:48
146
Нет комментариев. Ваш будет первым!