Вы используете незарегистрированную версию компонента "Вкладки"!

Поиск

(Free Improvisation, Altri Suoni) Rosetta (Yves Massy, Matthieu Michel, Pierre-Francois Massy...) - La Menagerie de poche - 1998, FLAC (tracks+.cue), lossless

(Free Improvisation, Altri Suoni) Rosetta (Yves Massy, Matthieu Michel, Pierre-Francois Massy...) - La Menagerie de poche - 1998, FLAC (tracks+.cue), lossless
Треклист:
Rosetta / La Ménagerie de poche
Жанр: Free Improvisation, Altri Suoni
Страна-производитель диска: Switzerland
Год издания: 1998
Издатель (лейбл): Altri Suoni
Номер по каталогу: AS 035
Аудиокодек: FLAC (*.flac)
Тип рипа: tracks+.cue
Битрейт аудио: lossless
Продолжительность: 55:46
Источник (релизер): Max Monteiro
Наличие сканов в содержимом раздачи: нет
Треклист:
01. To Bark 4:31
02. La Ménagerie de poche 3:41
03. Tom Rakewell 7:36
04. Petite Madame 2:32
05. L’Âge du capitaine 5:56
06. Nous voulons du volcan 8:23
07. Ls Îles 4:24
08. And Leave Show Business? 4:11
09. La picha Lolo / Un blues jaune 6:35
10. Effefenji 3:26
11. Andoar 4:31
Compositions de Pierre-François Massy, sauf « La picha Lolo » de Daniel Perrin.
Enregistrement en février-mars 1998 au studio Castle Life à Fribourg (Suisse).
Matthieu Michel – bugle
Yves Massy – trombone
Daniel Perrin – accordéon, piano
Pierre-François Massy – contrebasse
Marcel Papaux – batterie
 
Лог создания рипа
Exact Audio Copy V1.0 beta 3 from 29. August 2011
EAC extraction logfile from 4. July 2013, 19:03
Rosetta / La Ménagerie de poche
Used drive : SlimtypeeNAU508 5 Adapter: 1 ID: 0
Read mode : Secure
Utilize accurate stream : Yes
Defeat audio cache : Yes
Make use of C2 pointers : No
Read offset correction : 6
Overread into Lead-In and Lead-Out : No
Fill up missing offset samples with silence : Yes
Delete leading and trailing silent blocks : No
Null samples used in CRC calculations : Yes
Used interface : Native Win32 interface for Win NT & 2000
Gap handling : Appended to previous track
Used output format : User Defined Encoder
Selected bitrate : 768 kBit/s
Quality : High
Add ID3 tag : No
Command line compressor : C:\Program Files (x86)\Exact Audio Copy\Flac\flac.exe
Additional command line options : -8 -V -T "ARTIST=%artist%" -T "TITLE=%title%" -T "ALBUM=%albumtitle%" -T "DATE=%year%" -T "TRACKNUMBER=%tracknr%" -T "GENRE=%genre%" -T "PERFORMER=%albuminterpret%" -T "COMPOSER=%composer%" %haslyrics%--tag-from-file=LYRICS="%lyricsfile%"%haslyrics% -T "ALBUMARTIST=%albumartist%" -T "DISCNUMBER=%cdnumber%" -T "TOTALDISCS=%totalcds%" -T "TOTALTRACKS=%numtracks%" -T "COMMENT=%comment%" %source% -o %dest%
TOC of the extracted CD
Track | Start | Length | Start sector | End sector
---------------------------------------------------------
1 | 0:00.30 | 4:31.21 | 30 | 20375
2 | 4:31.51 | 3:41.32 | 20376 | 36982
3 | 8:13.08 | 7:36.26 | 36983 | 71208
4 | 15:49.34 | 2:32.09 | 71209 | 82617
5 | 18:21.43 | 5:56.03 | 82618 | 109320
6 | 24:17.46 | 8:22.38 | 109321 | 147008
7 | 32:40.09 | 4:24.15 | 147009 | 166823
8 | 37:04.24 | 4:10.62 | 166824 | 185635
9 | 41:15.11 | 6:34.65 | 185636 | 215250
10 | 47:50.01 | 3:26.03 | 215251 | 230703
11 | 51:16.04 | 4:30.42 | 230704 | 250995
Track 1
Filename C:\EAC rips\01 - To Bark.wav
Pre-gap length 0:00:02.30
Peak level 96.6 %
Extraction speed 1.1 X
Track quality 100.0 %
Test CRC CD3130A6
Copy CRC CD3130A6
Track not present in AccurateRip database
Copy OK
Track 2
Filename C:\EAC rips\02 - La Ménagerie de poche.wav
Peak level 96.6 %
Extraction speed 1.0 X
Track quality 99.9 %
Test CRC 1B0BA8B4
Copy CRC 1B0BA8B4
Track not present in AccurateRip database
Copy OK
Track 3
Filename C:\EAC rips\03 - Tom Rakewell.wav
Peak level 96.6 %
Extraction speed 1.4 X
Track quality 100.0 %
Test CRC 5E6162B6
Copy CRC 5E6162B6
Track not present in AccurateRip database
Copy OK
Track 4
Filename C:\EAC rips\04 - Petite Madame.wav
Peak level 86.6 %
Extraction speed 1.3 X
Track quality 100.0 %
Test CRC C8C11D63
Copy CRC C8C11D63
Track not present in AccurateRip database
Copy OK
Track 5
Filename C:\EAC rips\05 - L'Âge du capitaine _.wav
Pre-gap length 0:00:00.01
Peak level 90.9 %
Extraction speed 1.6 X
Track quality 100.0 %
Test CRC 537D5F6F
Copy CRC 537D5F6F
Track not present in AccurateRip database
Copy OK
Track 6
Filename C:\EAC rips\06 - Nous voulons du volcan.wav
Peak level 96.6 %
Extraction speed 1.8 X
Track quality 100.0 %
Test CRC D58FC703
Copy CRC D58FC703
Track not present in AccurateRip database
Copy OK
Track 7
Filename C:\EAC rips\07 - Les Îles.wav
Peak level 96.5 %
Extraction speed 1.8 X
Track quality 100.0 %
Test CRC 8FCDFEC9
Copy CRC 8FCDFEC9
Track not present in AccurateRip database
Copy OK
Track 8
Filename C:\EAC rips\08 - And Leave Show Business_.wav
Peak level 96.6 %
Extraction speed 1.9 X
Track quality 100.0 %
Test CRC F9FC2E5D
Copy CRC F9FC2E5D
Track not present in AccurateRip database
Copy OK
Track 9
Filename C:\EAC rips\09 - La picha Lolo - Un blues jaune.wav
Peak level 96.6 %
Extraction speed 2.0 X
Track quality 100.0 %
Test CRC EFF80917
Copy CRC EFF80917
Track not present in AccurateRip database
Copy OK
Track 10
Filename C:\EAC rips\10 - Effefenji.wav
Peak level 96.6 %
Extraction speed 2.0 X
Track quality 100.0 %
Test CRC 32487D45
Copy CRC 32487D45
Track not present in AccurateRip database
Copy OK
Track 11
Filename C:\EAC rips\11 - Andoar.wav
Peak level 93.8 %
Extraction speed 1.7 X
Track quality 99.9 %
Test CRC 1DBA55D0
Copy CRC 1DBA55D0
Track not present in AccurateRip database
Copy OK
None of the tracks are present in the AccurateRip database
No errors occurred
End of status report
---- CUETools DB Plugin V2.1.4
[CTDB TOCID: nTamM8R3deklzXp3bT6XHMLFrvk-] disk not present in database
Submit result: nTamM8R3deklzXp3bT6XHMLFrvk- has been uploaded
==== Log checksum B3DFAACE7426557CBAA717B6B1B18BA75FFDC513B463425DD5F677F44575E5E6 ====
 
Содержание индексной карты (.CUE)
REM GENRE Jazz
REM DATE 1998
REM DISCID 9E0D120B
REM COMMENT "ExactAudioCopy v1.0b3"
PERFORMER "Rosetta"
TITLE "La Ménagerie de poche"
FILE "01 - To Bark.wav" WAVE
TRACK 01 AUDIO
TITLE "To Bark"
PERFORMER "Rosetta"
PREGAP 00:00:30
INDEX 01 00:00:00
FILE "02 - La Ménagerie de poche.wav" WAVE
TRACK 02 AUDIO
TITLE "La Ménagerie de poche"
PERFORMER "Rosetta"
INDEX 01 00:00:00
FILE "03 - Tom Rakewell.wav" WAVE
TRACK 03 AUDIO
TITLE "Tom Rakewell"
PERFORMER "Rosetta"
INDEX 01 00:00:00
FILE "04 - Petite Madame.wav" WAVE
TRACK 04 AUDIO
TITLE "Petite Madame"
PERFORMER "Rosetta"
INDEX 01 00:00:00
TRACK 05 AUDIO
TITLE "L'Âge du capitaine ?"
PERFORMER "Rosetta"
INDEX 00 02:32:08
FILE "05 - L'Âge du capitaine _.wav" WAVE
INDEX 01 00:00:00
FILE "06 - Nous voulons du volcan.wav" WAVE
TRACK 06 AUDIO
TITLE "Nous voulons du volcan"
PERFORMER "Rosetta"
INDEX 01 00:00:00
FILE "07 - Les Îles.wav" WAVE
TRACK 07 AUDIO
TITLE "Les Îles"
PERFORMER "Rosetta"
INDEX 01 00:00:00
FILE "08 - And Leave Show Business_.wav" WAVE
TRACK 08 AUDIO
TITLE "And Leave Show Business?"
PERFORMER "Rosetta"
INDEX 01 00:00:00
FILE "09 - La picha Lolo - Un blues jaune.wav" WAVE
TRACK 09 AUDIO
TITLE "La picha Lolo / Un blues jaune"
PERFORMER "Rosetta"
INDEX 01 00:00:00
FILE "10 - Effefenji.wav" WAVE
TRACK 10 AUDIO
TITLE "Effefenji"
PERFORMER "Rosetta"
INDEX 01 00:00:00
FILE "11 - Andoar.wav" WAVE
TRACK 11 AUDIO
TITLE "Andoar"
PERFORMER "Rosetta"
INDEX 01 00:00:00
Any questions -> support@pro-jazz.com. По всем вопросам пишите -> support@pro-jazz.com
16:23
209
Нет комментариев. Ваш будет первым!