Вы используете незарегистрированную версию компонента "Вкладки"!

Поиск

(Free Jazz) Steve Lacy Quartet - Revenue - 1995, FLAC (tracks+.cue), lossless

(Free Jazz) Steve Lacy Quartet - Revenue - 1995, FLAC (tracks+.cue), lossless
Треклист:
Steve Lacy Quartet - Revenue
Жанр: Free Jazz
Страна-производитель диска: Italy
Год издания: 1995
Издатель (лейбл): Soul Note Records
Номер по каталогу: SN 121 234-2
Аудиокодек: FLAC (*.flac)
Тип рипа: tracks+.cue
Битрейт аудио: lossless
Продолжительность: 58 min.
Источник (релизер): собственный рип с оригинального диска.
Наличие сканов в содержимом раздачи: да
Треклист:
01. The Rent 8:42
02. Revenue 6:03
03. This Is It 12:11
04. The Uh Uh Uh 7:41
05. Esteem 9:18
06. I Do Not Believe 4:50
07. Gospel 8:15
 
Лог создания рипа
Exact Audio Copy V1.0 beta 3 from 29. August 2011
EAC extraction logfile from 29. March 2013, 15:41
Steve Lacy Quartet / Revenue
Used drive : TSSTcorpCDDVDW SH-S222A Adapter: 1 ID: 0
Read mode : Secure
Utilize accurate stream : Yes
Defeat audio cache : Yes
Make use of C2 pointers : No
Read offset correction : 6
Overread into Lead-In and Lead-Out : No
Fill up missing offset samples with silence : Yes
Delete leading and trailing silent blocks : No
Null samples used in CRC calculations : Yes
Used interface : Native Win32 interface for Win NT & 2000
Gap handling : Appended to previous track
Used output format : User Defined Encoder
Selected bitrate : 1024 kBit/s
Quality : High
Add ID3 tag : No
Command line compressor : C:\Tool\CD\EAC10\FLAC\FLAC.EXE
Additional command line options : -8 -V -T "ARTIST=%artist%" -T "TITLE=%title%" -T "ALBUM=%albumtitle%" -T "DATE=%year%" -T "TRACKNUMBER=%tracknr%" -T "GENRE=%genre%" -T "PERFORMER=%albuminterpret%" -T "COMPOSER=%composer%" %haslyrics%--tag-from-file=LYRICS="%lyricsfile%"%haslyrics% -T "ALBUMARTIST=%albumartist%" -T "ALBUM ARTIST=%albumartist%" -T "DISCNUMBER=%cdnumber%" -T "TOTALDISCS=%totalcds%" -T "TOTALTRACKS=%numtracks%" -T "COMMENT=EAC V1.0 beta 3, Secure Mode, Test & Copy, AccurateRip, FLAC -8" %source% -o %dest%
TOC of the extracted CD
Track | Start | Length | Start sector | End sector
---------------------------------------------------------
1 | 0:00.33 | 8:42.00 | 33 | 39182
2 | 8:42.33 | 6:03.00 | 39183 | 66407
3 | 14:45.33 | 12:11.00 | 66408 | 121232
4 | 26:56.33 | 7:41.05 | 121233 | 155812
5 | 34:37.38 | 9:18.20 | 155813 | 197682
6 | 43:55.58 | 4:50.50 | 197683 | 219482
7 | 48:46.33 | 8:15.00 | 219483 | 256607
Track 1
Filename C:\! UPLOAD\Steve Lacy Quartet - Revenue (1995) [FLAC]\01 - The Rent.wav
Pre-gap length 0:00:02.33
Peak level 76.9 %
Extraction speed 3.5 X
Track quality 100.0 %
Test CRC F8D17250
Copy CRC F8D17250
Accurately ripped (confidence 5) [9D0DB897] (AR v1)
Copy OK
Track 2
Filename C:\! UPLOAD\Steve Lacy Quartet - Revenue (1995) [FLAC]\02 - Revenue.wav
Peak level 90.1 %
Extraction speed 3.4 X
Track quality 100.0 %
Test CRC 8C4C5D4B
Copy CRC 8C4C5D4B
Accurately ripped (confidence 5) [59ACF281] (AR v1)
Copy OK
Track 3
Filename C:\! UPLOAD\Steve Lacy Quartet - Revenue (1995) [FLAC]\03 - This Is It.wav
Peak level 100.0 %
Extraction speed 3.4 X
Track quality 100.0 %
Test CRC 6757830B
Copy CRC 6757830B
Accurately ripped (confidence 5) [0E897314] (AR v1)
Copy OK
Track 4
Filename C:\! UPLOAD\Steve Lacy Quartet - Revenue (1995) [FLAC]\04 - The Uh Uh Uh.wav
Peak level 100.0 %
Extraction speed 3.4 X
Track quality 100.0 %
Test CRC 91A1ACD7
Copy CRC 91A1ACD7
Accurately ripped (confidence 5) [F3A3C743] (AR v1)
Copy OK
Track 5
Filename C:\! UPLOAD\Steve Lacy Quartet - Revenue (1995) [FLAC]\05 - Esteem.wav
Peak level 100.0 %
Extraction speed 3.4 X
Track quality 100.0 %
Test CRC 6E8148DE
Copy CRC 6E8148DE
Accurately ripped (confidence 5) [8D9859CF] (AR v1)
Copy OK
Track 6
Filename C:\! UPLOAD\Steve Lacy Quartet - Revenue (1995) [FLAC]\06 - I Do Not Believe.wav
Peak level 71.8 %
Extraction speed 3.3 X
Track quality 100.0 %
Test CRC 9CFFC075
Copy CRC 9CFFC075
Accurately ripped (confidence 5) [1AB6E998] (AR v1)
Copy OK
Track 7
Filename C:\! UPLOAD\Steve Lacy Quartet - Revenue (1995) [FLAC]\07 - Gospel.wav
Peak level 100.0 %
Extraction speed 3.0 X
Track quality 99.9 %
Test CRC D445D20A
Copy CRC D445D20A
Accurately ripped (confidence 5) [7CC7A360] (AR v1)
Copy OK
All tracks accurately ripped
No errors occurred
End of status report
==== Log checksum 5C8120B26C8BB1E8DA7E0A0679A03E33713B2589A39E2D8DBD1E6592BA66B470 ====
 
Содержание индексной карты (.CUE)
REM GENRE Jazz
REM DATE 1995
REM DISCID 6D0D5D07
REM COMMENT "ExactAudioCopy v1.0b3"
PERFORMER "Steve Lacy Quartet"
TITLE "Revenue"
FILE "01 - The Rent.wav" WAVE
TRACK 01 AUDIO
TITLE "The Rent"
PERFORMER "Steve Lacy Quartet"
PREGAP 00:00:33
INDEX 01 00:00:00
FILE "02 - Revenue.wav" WAVE
TRACK 02 AUDIO
TITLE "Revenue"
PERFORMER "Steve Lacy Quartet"
INDEX 01 00:00:00
FILE "03 - This Is It.wav" WAVE
TRACK 03 AUDIO
TITLE "This Is It"
PERFORMER "Steve Lacy Quartet"
INDEX 01 00:00:00
FILE "04 - The Uh Uh Uh.wav" WAVE
TRACK 04 AUDIO
TITLE "The Uh Uh Uh"
PERFORMER "Steve Lacy Quartet"
INDEX 01 00:00:00
FILE "05 - Esteem.wav" WAVE
TRACK 05 AUDIO
TITLE "Esteem"
PERFORMER "Steve Lacy Quartet"
INDEX 01 00:00:00
FILE "06 - I Do Not Believe.wav" WAVE
TRACK 06 AUDIO
TITLE "I Do Not Believe"
PERFORMER "Steve Lacy Quartet"
INDEX 01 00:00:00
FILE "07 - Gospel.wav" WAVE
TRACK 07 AUDIO
TITLE "Gospel"
PERFORMER "Steve Lacy Quartet"
INDEX 01 00:00:00
Доп. информация:
Recorded on February 23, 24 & 25, 1993 at Barigozzi Studio in Milano, Italy.
 
Об альбоме (by Chris Kelsey)
In this album's liner notes, Lacy explains that his quartet began as a streamlined version of his sextet, designed to play venues that can't afford the larger band. It certainly became much more than that; it might be posited that the quartet is the more conventionally jazz-like of the two bands. With vocalist/cellist Irene Aebi and pianist Bobby Few added, Lacy's tunes take on a bit more classical, "new music" air. The quartet, however, is a more rough-and-ready outfit, with the interplay between Lacy and fellow saxophonist Steve Potts taking on more importance. The two play extraordinarily well together. Lacy is a much more suave player than Potts, whose work has a sort of awkward, ungainly air, but whose playing is as devoid of contrivance as any improviser one could name.
Intensity is a given, even in the quietest, most introspective sections. Much was made in the early '90s (when this record was made) of the jazz tradition. This music is a fine example of what happens when a visionary musician makes something extending and expanding upon the tradition his life's work. An excellent disc.
 
Об альбоме (from aaj)
This is more essential Lacy, with the band plying regular features like “The Rent” and “I Do Not Believe” (from Vespers ) to the ultimate flexibility. Tributes to Robert Creeley, Johnny Hodges and Jimi Hendrix illustrates Lacy's huge palette of influences.
 
Состав
Steve Lacy - soprano saxophone
Steve Potts - alto saxophone, soprano saxophone
Jean-Jacques Avenel - bass
John Betsch - drums
По всем вопросам пишите личное сообщение пользователю M0p94ok.
16:23
327
Нет комментариев. Ваш будет первым!