Вы используете незарегистрированную версию компонента "Вкладки"!

Поиск

(Avant-Garde, Enja Records) Italian Instabile Orchestra - Litania Sibilante - 2000, FLAC (tracks+.cue), lossless

(Avant-Garde, Enja Records) Italian Instabile Orchestra - Litania Sibilante - 2000, FLAC (tracks+.cue), lossless
Треклист:
Italian Instabile Orchestra / Litania Sibilante
Жанр: Avant-Garde, Enja Records
Страна-производитель диска: Germany
Год издания: 2000
Издатель (лейбл): Enja Records
Номер по каталогу: ENJ 9405 2
Аудиокодек: FLAC (*.flac)
Тип рипа: tracks+.cue
Битрейт аудио: lossless
Продолжительность: 1:03:09
Источник (релизер): Max Monteiro
Наличие сканов в содержимом раздачи: нет
Треклист:
1. Scarlattina (Gianluigi Trovesi) 13:33
2. Sequenze fughe (Paolo Damiani) 11:46
3. Litania Sibilante (Giancarlo Schiaffini) 14:16
4. M 42 (Alberto Mandarini) 9:21
5. Lover Man (Davis / Ramirez / Sherman ; arr. by Giancarlo Schiaffini) 5:01
6. Herr Fantozzi (Pino Minafra) 9:11
Recorded on March 6-8, 2000 at Studio B of Centro di Produzione RadioRai, Rome.
Eugenio Colombo – Flute, Soprano Sax
Gianluigi Trovesi – Soprano and Alto Saxes, Clarinet
Carlo Actis Dato – Bass Clarinet
Daniele Cavallanti – Tenor Sax
Mario Schiano – Sax and Voice
Guido Mazzon – Trumpet
Alberto Mandarini – Trumpet
Pino Minafra – Trumpet
Giancarlo Schiaffini – Trombone
Sebi Tramontana – Trombone
Lauro Rossi – Trombone
Martin Mayes – French Horn
Renato Geremia – Violin
Umberto Petrin – Piano
Giovanni Maier – Bass
Paolo Damiani – Cello
Tiziano Tononi – Drums
Vincenzo Mazzone – Drums
Guests:
Enrico Rava – Trumpet
Antonello Salis - Accordion
 
Лог создания рипа
Exact Audio Copy V1.0 beta 3 from 29. August 2011
EAC extraction logfile from 17. July 2013, 21:08
Italian Instabile Orchestra / Litania Sibilante
Used drive : SlimtypeeNAU508 5 Adapter: 1 ID: 0
Read mode : Secure
Utilize accurate stream : Yes
Defeat audio cache : Yes
Make use of C2 pointers : No
Read offset correction : 6
Overread into Lead-In and Lead-Out : No
Fill up missing offset samples with silence : Yes
Delete leading and trailing silent blocks : No
Null samples used in CRC calculations : Yes
Used interface : Native Win32 interface for Win NT & 2000
Gap handling : Appended to previous track
Used output format : User Defined Encoder
Selected bitrate : 768 kBit/s
Quality : High
Add ID3 tag : No
Command line compressor : C:\Program Files (x86)\Exact Audio Copy\Flac\flac.exe
Additional command line options : -8 -V -T "ARTIST=%artist%" -T "TITLE=%title%" -T "ALBUM=%albumtitle%" -T "DATE=%year%" -T "TRACKNUMBER=%tracknr%" -T "GENRE=%genre%" -T "PERFORMER=%albuminterpret%" -T "COMPOSER=%composer%" %haslyrics%--tag-from-file=LYRICS="%lyricsfile%"%haslyrics% -T "ALBUMARTIST=%albumartist%" -T "DISCNUMBER=%cdnumber%" -T "TOTALDISCS=%totalcds%" -T "TOTALTRACKS=%numtracks%" -T "COMMENT=%comment%" %source% -o %dest%
TOC of the extracted CD
Track | Start | Length | Start sector | End sector
---------------------------------------------------------
1 | 0:00.00 | 13:33.35 | 0 | 61009
2 | 13:33.35 | 11:46.05 | 61010 | 113964
3 | 25:19.40 | 14:16.18 | 113965 | 178182
4 | 39:35.58 | 9:21.09 | 178183 | 220266
5 | 48:56.67 | 5:01.06 | 220267 | 242847
6 | 53:57.73 | 9:10.43 | 242848 | 284140
Track 1
Filename C:\EAC rips\01 - Scarlattina.wav
Pre-gap length 0:00:02.00
Peak level 100.0 %
Extraction speed 2.6 X
Track quality 100.0 %
Test CRC F765B562
Copy CRC F765B562
Accurately ripped (confidence 5) [79DD507B] (AR v1)
Copy OK
Track 2
Filename C:\EAC rips\02 - Sequenze fughe.wav
Pre-gap length 0:00:02.57
Peak level 100.0 %
Extraction speed 3.0 X
Track quality 100.0 %
Test CRC 7FD3C239
Copy CRC 7FD3C239
Accurately ripped (confidence 5) [8FE2C863] (AR v1)
Copy OK
Track 3
Filename C:\EAC rips\03 - Litania Sibilante.wav
Pre-gap length 0:00:04.27
Peak level 98.8 %
Extraction speed 3.8 X
Track quality 99.9 %
Test CRC 951B60D2
Copy CRC 951B60D2
Accurately ripped (confidence 5) [1C32A771] (AR v1)
Copy OK
Track 4
Filename C:\EAC rips\04 - M 42.wav
Pre-gap length 0:00:06.27
Peak level 100.0 %
Extraction speed 4.4 X
Track quality 100.0 %
Test CRC 2DEA1C96
Copy CRC 2DEA1C96
Accurately ripped (confidence 5) [568E8B8F] (AR v1)
Copy OK
Track 5
Filename C:\EAC rips\05 - Lover Man.wav
Pre-gap length 0:00:04.48
Peak level 98.8 %
Extraction speed 3.6 X
Track quality 99.9 %
Test CRC 5FBA40C5
Copy CRC 5FBA40C5
Accurately ripped (confidence 5) [35C742F8] (AR v1)
Copy OK
Track 6
Filename C:\EAC rips\06 - Herr Fantozzi.wav
Pre-gap length 0:00:04.27
Peak level 100.0 %
Extraction speed 4.1 X
Track quality 100.0 %
Test CRC 4A0C7DDC
Copy CRC 4A0C7DDC
Accurately ripped (confidence 5) [C7554104] (AR v1)
Copy OK
All tracks accurately ripped
No errors occurred
End of status report
---- CUETools DB Plugin V2.1.4
[CTDB TOCID: pQV98NgTtrhs4coHCFwpUrZ7API-] found
Submit result: pQV98NgTtrhs4coHCFwpUrZ7API- has been confirmed
Track | CTDB Status
1 | (1/1) Accurately ripped
2 | (1/1) Accurately ripped
3 | (1/1) Accurately ripped
4 | (1/1) Accurately ripped
5 | (1/1) Accurately ripped
6 | (1/1) Accurately ripped
==== Log checksum 28DDB4D5409EE68DA16DA393821C9DF1D10E6018C4A874162A448ABD8EC68A86 ====
 
Содержание индексной карты (.CUE)
REM GENRE Jazz
REM DATE 2000
REM DISCID 530ECC06
REM COMMENT "ExactAudioCopy v1.0b3"
PERFORMER "Italian Instabile Orchestra"
TITLE "Litania Sibilante"
FILE "01 - Scarlattina.wav" WAVE
TRACK 01 AUDIO
TITLE "Scarlattina"
PERFORMER "Italian Instabile Orchestra"
ISRC DEA590000501
INDEX 01 00:00:00
TRACK 02 AUDIO
TITLE "Sequenze fughe"
PERFORMER "Italian Instabile Orchestra"
ISRC DEA590000502
INDEX 00 13:30:53
FILE "02 - Sequenze fughe.wav" WAVE
INDEX 01 00:00:00
TRACK 03 AUDIO
TITLE "Litania Sibilante"
PERFORMER "Italian Instabile Orchestra"
ISRC DEA590000503
INDEX 00 11:41:53
FILE "03 - Litania Sibilante.wav" WAVE
INDEX 01 00:00:00
TRACK 04 AUDIO
TITLE "M 42"
PERFORMER "Italian Instabile Orchestra"
ISRC DEA590000504
INDEX 00 14:09:66
FILE "04 - M 42.wav" WAVE
INDEX 01 00:00:00
TRACK 05 AUDIO
TITLE "Lover Man"
PERFORMER "Italian Instabile Orchestra"
ISRC DEA590000505
INDEX 00 09:16:36
FILE "05 - Lover Man.wav" WAVE
INDEX 01 00:00:00
TRACK 06 AUDIO
TITLE "Herr Fantozzi"
PERFORMER "Italian Instabile Orchestra"
ISRC DEA590000506
INDEX 00 04:56:54
FILE "06 - Herr Fantozzi.wav" WAVE
INDEX 01 00:00:00
Any questions -> support@pro-jazz.com. По всем вопросам пишите -> support@pro-jazz.com
16:24
157
Нет комментариев. Ваш будет первым!