Вы используете незарегистрированную версию компонента "Вкладки"!

Поиск

(Free Improvisation, Altri Suoni) Cuarteto Eduardo Kohan - "Klaro" - 2003, FLAC (tracks+.cue), lossless

(Free Improvisation, Altri Suoni) Cuarteto Eduardo Kohan - "Klaro" - 2003, FLAC (tracks+.cue), lossless
Треклист:
Cuarteto Eduardo Kohan / "Klaro"
Жанр: Free Improvisation, Altri Suoni
Страна-производитель диска: Switzerland
Год издания: 2003
Издатель (лейбл): Altri Suoni
Номер по каталогу: AS 150
Аудиокодек: FLAC (*.flac)
Тип рипа: tracks+.cue
Битрейт аудио: lossless
Продолжительность: 1:06:58
Источник (релизер): Max Monteiro
Наличие сканов в содержимом раздачи: нет
Треклист:
01. Metempsicosis (Cuarteto, Lugones) 6:13
02. Danse de la fureur pour les sept trompettes (extrait) (Olivier Messian) 1:34
03. Petite Mélodie (Eduardo Kohan) 5:39
04. C’est assez (Cuarteto) 3:06
05. Sopenko (Eduardo Kohan) 6:06
06. Klaro (Eduardo Kohan) 6:30
07. Selva (Cuarteto) 2:05
08. Soul Eyes (Mal Waldron) 7:04
09. Marécages (Cuarteto) 3:35
10. Milonka (Eduardo Kohan) 4:33
11. Che (Cuarteto) 3:50
12. Katamarka (Cuarteto) 3:53
13. Dear Lord (John Coltrane) 8:22
14. Mister F (Cuarteto) 4:28
Enregistrement à AXIS Studio, Genève.
Christian Kleiner – contrebasse
Eduardo Kohan – saxophone, flûte, mélodica et voix
Jean Ferrarini – piano
Laurent Wyler – batterie
 
Лог создания рипа
Exact Audio Copy V1.0 beta 3 from 29. August 2011
EAC extraction logfile from 10. July 2013, 18:54
Cuarteto Eduardo Kohan / "Klaro"
Used drive : SlimtypeeNAU508 5 Adapter: 1 ID: 0
Read mode : Secure
Utilize accurate stream : Yes
Defeat audio cache : Yes
Make use of C2 pointers : No
Read offset correction : 6
Overread into Lead-In and Lead-Out : No
Fill up missing offset samples with silence : Yes
Delete leading and trailing silent blocks : No
Null samples used in CRC calculations : Yes
Used interface : Native Win32 interface for Win NT & 2000
Gap handling : Appended to previous track
Used output format : User Defined Encoder
Selected bitrate : 768 kBit/s
Quality : High
Add ID3 tag : No
Command line compressor : C:\Program Files (x86)\Exact Audio Copy\Flac\flac.exe
Additional command line options : -8 -V -T "ARTIST=%artist%" -T "TITLE=%title%" -T "ALBUM=%albumtitle%" -T "DATE=%year%" -T "TRACKNUMBER=%tracknr%" -T "GENRE=%genre%" -T "PERFORMER=%albuminterpret%" -T "COMPOSER=%composer%" %haslyrics%--tag-from-file=LYRICS="%lyricsfile%"%haslyrics% -T "ALBUMARTIST=%albumartist%" -T "DISCNUMBER=%cdnumber%" -T "TOTALDISCS=%totalcds%" -T "TOTALTRACKS=%numtracks%" -T "COMMENT=%comment%" %source% -o %dest%
TOC of the extracted CD
Track | Start | Length | Start sector | End sector
---------------------------------------------------------
1 | 0:00.00 | 6:12.71 | 0 | 27970
2 | 6:12.71 | 1:34.00 | 27971 | 35020
3 | 7:46.71 | 5:39.22 | 35021 | 60467
4 | 13:26.18 | 3:05.73 | 60468 | 74415
5 | 16:32.16 | 6:05.49 | 74416 | 101839
6 | 22:37.65 | 6:29.58 | 101840 | 131072
7 | 29:07.48 | 2:05.28 | 131073 | 140475
8 | 31:13.01 | 7:04.04 | 140476 | 172279
9 | 38:17.05 | 3:35.11 | 172280 | 188415
10 | 41:52.16 | 4:33.07 | 188416 | 208897
11 | 46:25.23 | 3:50.14 | 208898 | 226161
12 | 50:15.37 | 3:53.12 | 226162 | 243648
13 | 54:08.49 | 8:21.55 | 243649 | 281278
14 | 62:30.29 | 4:27.56 | 281279 | 301359
Track 1
Filename C:\EAC rips\01 - Metempsicosis.wav
Pre-gap length 0:00:02.00
Peak level 96.6 %
Extraction speed 2.2 X
Track quality 100.0 %
Test CRC D87F550D
Copy CRC D87F550D
Track not present in AccurateRip database
Copy OK
Track 2
Filename C:\EAC rips\02 - Danse de la fureur pour les sept trompettes (extrait).wav
Peak level 97.7 %
Extraction speed 1.9 X
Track quality 100.0 %
Test CRC 83FF96AD
Copy CRC 83FF96AD
Track not present in AccurateRip database
Copy OK
Track 3
Filename C:\EAC rips\03 - Petite Mélodie.wav
Peak level 97.7 %
Extraction speed 2.3 X
Track quality 99.9 %
Test CRC AAD37B76
Copy CRC AAD37B76
Track not present in AccurateRip database
Copy OK
Track 4
Filename C:\EAC rips\04 - C'est assez.wav
Peak level 85.1 %
Extraction speed 2.6 X
Track quality 100.0 %
Test CRC A7F2BC88
Copy CRC A7F2BC88
Track not present in AccurateRip database
Copy OK
Track 5
Filename C:\EAC rips\05 - Sopenko.wav
Peak level 98.8 %
Extraction speed 3.0 X
Track quality 100.0 %
Test CRC 420D2761
Copy CRC 420D2761
Track not present in AccurateRip database
Copy OK
Track 6
Filename C:\EAC rips\06 - Klaro.wav
Peak level 97.7 %
Extraction speed 2.9 X
Track quality 99.9 %
Test CRC 86D8704B
Copy CRC 86D8704B
Track not present in AccurateRip database
Copy OK
Track 7
Filename C:\EAC rips\07 - Selva.wav
Pre-gap length 0:00:01.60
Peak level 97.7 %
Extraction speed 2.9 X
Track quality 100.0 %
Test CRC 14BE59CC
Copy CRC 14BE59CC
Track not present in AccurateRip database
Copy OK
Track 8
Filename C:\EAC rips\08 - Soul Eyes.wav
Peak level 97.7 %
Extraction speed 3.7 X
Track quality 100.0 %
Test CRC A6C6C71C
Copy CRC A6C6C71C
Track not present in AccurateRip database
Copy OK
Track 9
Filename C:\EAC rips\09 - Marécages.wav
Peak level 97.7 %
Extraction speed 2.9 X
Track quality 99.9 %
Test CRC FAEC597D
Copy CRC FAEC597D
Track not present in AccurateRip database
Copy OK
Track 10
Filename C:\EAC rips\10 - Milonka.wav
Peak level 99.9 %
Extraction speed 3.8 X
Track quality 100.0 %
Test CRC B018A429
Copy CRC B018A429
Track not present in AccurateRip database
Copy OK
Track 11
Filename C:\EAC rips\11 - Che.wav
Peak level 98.8 %
Extraction speed 3.9 X
Track quality 100.0 %
Test CRC FB360EE2
Copy CRC FB360EE2
Track not present in AccurateRip database
Copy OK
Track 12
Filename C:\EAC rips\12 - Katamarka.wav
Pre-gap length 0:00:01.07
Peak level 97.7 %
Extraction speed 4.0 X
Track quality 100.0 %
Test CRC 3F4585B8
Copy CRC 3F4585B8
Track not present in AccurateRip database
Copy OK
Track 13
Filename C:\EAC rips\13 - Dear Lord.wav
Peak level 96.5 %
Extraction speed 4.5 X
Track quality 100.0 %
Test CRC 8C322200
Copy CRC 8C322200
Track not present in AccurateRip database
Copy OK
Track 14
Filename C:\EAC rips\14 - Mister F.wav
Peak level 99.9 %
Extraction speed 4.4 X
Track quality 100.0 %
Test CRC B29DE672
Copy CRC B29DE672
Track not present in AccurateRip database
Copy OK
None of the tracks are present in the AccurateRip database
No errors occurred
End of status report
---- CUETools DB Plugin V2.1.4
[CTDB TOCID: ZO9Z4NB3wVwh7OWXcwNpQ0QFzKM-] disk not present in database
Submit result: ZO9Z4NB3wVwh7OWXcwNpQ0QFzKM- has been uploaded
==== Log checksum 1CDAC9952D31D212D331A7B23A66F1D44C39C234E6BC9198D8DBF272DAFF0893 ====
 
Содержание индексной карты (.CUE)
REM GENRE Jazz
REM DATE 2003
REM DISCID E40FB20E
REM COMMENT "ExactAudioCopy v1.0b3"
PERFORMER "Cuarteto Eduardo Kohan"
TITLE "'Klaro'"
FILE "01 - Metempsicosis.wav" WAVE
TRACK 01 AUDIO
TITLE "Metempsicosis"
PERFORMER "Cuarteto Eduardo Kohan"
ISRC CH1880212201
INDEX 01 00:00:00
FILE "02 - Danse de la fureur pour les sept trompettes (extrait).wav" WAVE
TRACK 02 AUDIO
TITLE "Danse de la fureur pour les sept trompettes (extrait)"
PERFORMER "Cuarteto Eduardo Kohan"
ISRC CH1880212202
INDEX 01 00:00:00
FILE "03 - Petite Mélodie.wav" WAVE
TRACK 03 AUDIO
TITLE "Petite Mélodie"
PERFORMER "Cuarteto Eduardo Kohan"
ISRC CH1880212203
INDEX 01 00:00:00
FILE "04 - C'est assez.wav" WAVE
TRACK 04 AUDIO
TITLE "C'est assez"
PERFORMER "Cuarteto Eduardo Kohan"
ISRC CH1880212204
INDEX 01 00:00:00
FILE "05 - Sopenko.wav" WAVE
TRACK 05 AUDIO
TITLE "Sopenko"
PERFORMER "Cuarteto Eduardo Kohan"
ISRC CH1880212205
INDEX 01 00:00:00
FILE "06 - Klaro.wav" WAVE
TRACK 06 AUDIO
TITLE "Klaro"
PERFORMER "Cuarteto Eduardo Kohan"
ISRC CH1880212206
INDEX 01 00:00:00
TRACK 07 AUDIO
TITLE "Selva"
PERFORMER "Cuarteto Eduardo Kohan"
ISRC CH1880212207
INDEX 00 06:27:73
FILE "07 - Selva.wav" WAVE
INDEX 01 00:00:00
FILE "08 - Soul Eyes.wav" WAVE
TRACK 08 AUDIO
TITLE "Soul Eyes"
PERFORMER "Cuarteto Eduardo Kohan"
ISRC CH1880212208
INDEX 01 00:00:00
FILE "09 - Marécages.wav" WAVE
TRACK 09 AUDIO
TITLE "Marécages"
PERFORMER "Cuarteto Eduardo Kohan"
ISRC CH1880212209
INDEX 01 00:00:00
FILE "10 - Milonka.wav" WAVE
TRACK 10 AUDIO
TITLE "Milonka"
PERFORMER "Cuarteto Eduardo Kohan"
ISRC CH1880212210
INDEX 01 00:00:00
FILE "11 - Che.wav" WAVE
TRACK 11 AUDIO
TITLE "Che"
PERFORMER "Cuarteto Eduardo Kohan"
ISRC CH1880212211
INDEX 01 00:00:00
TRACK 12 AUDIO
TITLE "Katamarka"
PERFORMER "Cuarteto Eduardo Kohan"
ISRC CH1880212212
INDEX 00 03:49:07
FILE "12 - Katamarka.wav" WAVE
INDEX 01 00:00:00
FILE "13 - Dear Lord.wav" WAVE
TRACK 13 AUDIO
TITLE "Dear Lord"
PERFORMER "Cuarteto Eduardo Kohan"
ISRC CH1880212213
INDEX 01 00:00:00
FILE "14 - Mister F.wav" WAVE
TRACK 14 AUDIO
TITLE "Mister F"
PERFORMER "Cuarteto Eduardo Kohan"
ISRC CH1880212214
INDEX 01 00:00:00
По всем вопросам пишите личное сообщение пользователю M0p94ok.
16:25
157
Нет комментариев. Ваш будет первым!