Вы используете незарегистрированную версию компонента "Вкладки"!

Поиск

(Avant-Garde, Post-Bop, Enja Records) Arthur Blythe - Calling Card - 1995, FLAC (tracks+.cue), lossless

(Avant-Garde, Post-Bop, Enja Records) Arthur Blythe - Calling Card - 1995, FLAC (tracks+.cue), lossless
Треклист:
Arthur Blythe / Calling Card
Жанр: Avant-Garde, Post-Bop, Enja Records
Страна-производитель диска: Germany
Год издания: 1995
Издатель (лейбл): Enja Records
Номер по каталогу: ENJ 9051-2
Аудиокодек: FLAC (*.flac)
Тип рипа: tracks+.cue
Битрейт аудио: lossless
Продолжительность: 1:12:06
Источник (релизер): Max Monteiro
Наличие сканов в содержимом раздачи: нет
Треклист:
1. As of Yet 8:31
2. Blues Blues 8:49
3. Naima’s Love Song 9:02
4. Hip Dripper 7:21
5. Odessa 9:52
6. Elaborations 14:51
7. Jitterbug Waltz 7:16
8. Break Tune 6:24
All compositions by Arthur Blythe except (3) by John Hicks, (7) by Fats Waller.
Digitally recorded live at the Village Vanguard, N.Y., on June 26, 1993.
Arthur Blythe – Alto Saxophone
John Hicks – Piano
Cecil McBee – Bass
Bobby Battle – Drums
 
Лог создания рипа
Exact Audio Copy V1.0 beta 3 from 29. August 2011
EAC extraction logfile from 17. July 2013, 16:47
Arthur Blythe / Calling Card
Used drive : SlimtypeeNAU508 5 Adapter: 1 ID: 0
Read mode : Secure
Utilize accurate stream : Yes
Defeat audio cache : Yes
Make use of C2 pointers : No
Read offset correction : 6
Overread into Lead-In and Lead-Out : No
Fill up missing offset samples with silence : Yes
Delete leading and trailing silent blocks : No
Null samples used in CRC calculations : Yes
Used interface : Native Win32 interface for Win NT & 2000
Gap handling : Appended to previous track
Used output format : User Defined Encoder
Selected bitrate : 768 kBit/s
Quality : High
Add ID3 tag : No
Command line compressor : C:\Program Files (x86)\Exact Audio Copy\Flac\flac.exe
Additional command line options : -8 -V -T "ARTIST=%artist%" -T "TITLE=%title%" -T "ALBUM=%albumtitle%" -T "DATE=%year%" -T "TRACKNUMBER=%tracknr%" -T "GENRE=%genre%" -T "PERFORMER=%albuminterpret%" -T "COMPOSER=%composer%" %haslyrics%--tag-from-file=LYRICS="%lyricsfile%"%haslyrics% -T "ALBUMARTIST=%albumartist%" -T "DISCNUMBER=%cdnumber%" -T "TOTALDISCS=%totalcds%" -T "TOTALTRACKS=%numtracks%" -T "COMMENT=%comment%" %source% -o %dest%
TOC of the extracted CD
Track | Start | Length | Start sector | End sector
---------------------------------------------------------
1 | 0:00.00 | 8:31.37 | 0 | 38361
2 | 8:31.37 | 8:48.53 | 38362 | 78014
3 | 17:20.15 | 9:01.72 | 78015 | 118661
4 | 26:22.12 | 7:20.68 | 118662 | 151729
5 | 33:43.05 | 9:51.62 | 151730 | 196116
6 | 43:34.67 | 14:51.00 | 196117 | 262941
7 | 58:25.67 | 7:15.70 | 262942 | 295636
8 | 65:41.62 | 6:24.30 | 295637 | 324466
Track 1
Filename C:\EAC rips\01 - As of Yet.wav
Pre-gap length 0:00:02.00
Peak level 94.4 %
Extraction speed 2.0 X
Track quality 100.0 %
Test CRC 2BA76336
Copy CRC 2BA76336
Accurately ripped (confidence 1) [7192CD89] (AR v2)
Copy OK
Track 2
Filename C:\EAC rips\02 - Blue Blues.wav
Peak level 94.4 %
Extraction speed 2.6 X
Track quality 100.0 %
Test CRC D35A87E3
Copy CRC D35A87E3
Accurately ripped (confidence 1) [0F513BF7] (AR v2)
Copy OK
Track 3
Filename C:\EAC rips\03 - Naima's Love Song.wav
Peak level 94.4 %
Extraction speed 3.1 X
Track quality 100.0 %
Test CRC 3C518332
Copy CRC 3C518332
Accurately ripped (confidence 1) [D947112C] (AR v2)
Copy OK
Track 4
Filename C:\EAC rips\04 - Hip Dripper.wav
Peak level 87.3 %
Extraction speed 3.1 X
Track quality 99.9 %
Test CRC 8F3D1930
Copy CRC 8F3D1930
Accurately ripped (confidence 1) [2BCA794A] (AR v2)
Copy OK
Track 5
Filename C:\EAC rips\05 - Odessa.wav
Peak level 94.3 %
Extraction speed 3.9 X
Track quality 100.0 %
Test CRC A36EB4E1
Copy CRC A36EB4E1
Accurately ripped (confidence 1) [4442FC6F] (AR v2)
Copy OK
Track 6
Filename C:\EAC rips\06 - Elaborations.wav
Peak level 94.4 %
Extraction speed 4.5 X
Track quality 100.0 %
Test CRC EA9CD16F
Copy CRC EA9CD16F
Accurately ripped (confidence 1) [8BE71F08] (AR v2)
Copy OK
Track 7
Filename C:\EAC rips\07 - Jitterbug Waltz.wav
Peak level 94.4 %
Extraction speed 4.2 X
Track quality 99.9 %
Test CRC 3DCAB159
Copy CRC 3DCAB159
Accurately ripped (confidence 1) [BB180E5E] (AR v2)
Copy OK
Track 8
Filename C:\EAC rips\08 - Break Tune.wav
Peak level 94.4 %
Extraction speed 4.9 X
Track quality 100.0 %
Test CRC F42D17A9
Copy CRC F42D17A9
Accurately ripped (confidence 1) [AB08D280] (AR v2)
Copy OK
All tracks accurately ripped
No errors occurred
End of status report
---- CUETools DB Plugin V2.1.4
[CTDB TOCID: 2XnEItaoGZHTo8uUU2Mc0ImuRhw-] found
Submit result: 2XnEItaoGZHTo8uUU2Mc0ImuRhw- has been confirmed
Track | CTDB Status
1 | (2/2) Accurately ripped
2 | (2/2) Accurately ripped
3 | (2/2) Accurately ripped
4 | (2/2) Accurately ripped
5 | (2/2) Accurately ripped
6 | (2/2) Accurately ripped
7 | (2/2) Accurately ripped
8 | (2/2) Accurately ripped
==== Log checksum 0A75FD1A84596B8D45C9237F4C89126DF0DF40624E853E85A9509FB273BB3E99 ====
 
Содержание индексной карты (.CUE)
REM GENRE Jazz
REM DATE 1995
REM DISCID 5E10E608
REM COMMENT "ExactAudioCopy v1.0b3"
PERFORMER "Arthur Blythe"
TITLE "Calling Card"
FILE "01 - As of Yet.wav" WAVE
TRACK 01 AUDIO
TITLE "As of Yet"
PERFORMER "Arthur Blythe"
INDEX 01 00:00:00
FILE "02 - Blue Blues.wav" WAVE
TRACK 02 AUDIO
TITLE "Blue Blues"
PERFORMER "Arthur Blythe"
INDEX 01 00:00:00
FILE "03 - Naima's Love Song.wav" WAVE
TRACK 03 AUDIO
TITLE "Naima's Love Song"
PERFORMER "Arthur Blythe"
INDEX 01 00:00:00
FILE "04 - Hip Dripper.wav" WAVE
TRACK 04 AUDIO
TITLE "Hip Dripper"
PERFORMER "Arthur Blythe"
INDEX 01 00:00:00
FILE "05 - Odessa.wav" WAVE
TRACK 05 AUDIO
TITLE "Odessa"
PERFORMER "Arthur Blythe"
INDEX 01 00:00:00
FILE "06 - Elaborations.wav" WAVE
TRACK 06 AUDIO
TITLE "Elaborations"
PERFORMER "Arthur Blythe"
INDEX 01 00:00:00
FILE "07 - Jitterbug Waltz.wav" WAVE
TRACK 07 AUDIO
TITLE "Jitterbug Waltz"
PERFORMER "Arthur Blythe"
INDEX 01 00:00:00
FILE "08 - Break Tune.wav" WAVE
TRACK 08 AUDIO
TITLE "Break Tune"
PERFORMER "Arthur Blythe"
INDEX 01 00:00:00
Any questions -> support@pro-jazz.com. По всем вопросам пишите -> support@pro-jazz.com
16:25
172
Нет комментариев. Ваш будет первым!