Вы используете незарегистрированную версию компонента "Вкладки"!

Поиск

(Free Improvisation, NoBusiness Records) Carlos Alves “Zingaro”, Jean Luc Cappozzo, Jerome Bourdellon, Nicolas Lelievre - Live At Total Meeting - 2012, FLAC (image+.cue), lossless

(Free Improvisation, NoBusiness Records) Carlos Alves “Zingaro”, Jean Luc Cappozzo, Jerome Bourdellon, Nicolas Lelievre - Live At Total Meeting - 2012, FLAC (image+.cue), lossless
Треклист:
Carlos Alves “Zingaro”, Jean Luc Cappozzo, Jerome Bourdellon, Nicolas Lelievre / Live At Total Meeting
Жанр: Free Improvisation
Страна-производитель диска: Lithuania
Год издания: 2012
Издатель (лейбл): NoBusiness Records
Номер по каталогу: NBCD48
Аудиокодек: FLAC (*.flac)
Тип рипа: image+.cue
Битрейт аудио: lossless
Продолжительность: 51:53
Источник (релизер): cd
Наличие сканов в содержимом раздачи: нет
Треклист:
1 Total 1 19:27
2 Total 4 19:31
3 Total 3 12:54
 
Лог создания рипа
Exact Audio Copy V1.0 beta 2 from 29. April 2011
EAC extraction logfile from 22. July 2013, 12:57
Zingaro, Cappozzo, Bourdellon, Lelievre / Live At Total Meeting
Used drive : Optiarc DVD RW AD-7170A Adapter: 0 ID: 0
Read mode : Secure
Utilize accurate stream : Yes
Defeat audio cache : Yes
Make use of C2 pointers : No
Read offset correction : 48
Overread into Lead-In and Lead-Out : No
Fill up missing offset samples with silence : Yes
Delete leading and trailing silent blocks : No
Null samples used in CRC calculations : Yes
Used interface : Native Win32 interface for Win NT & 2000
Used output format : User Defined Encoder
Selected bitrate : 320 kBit/s
Quality : High
Add ID3 tag : No
Command line compressor : C:\Program Files\Exact Audio Copy\Flac\flac.exe
Additional command line options : -V -8 -T "Date=%year%" -T "Genre=%genre%" %source%
TOC of the extracted CD
Track | Start | Length | Start sector | End sector
---------------------------------------------------------
1 | 0:00.00 | 19:31.29 | 0 | 87853
2 | 19:31.29 | 12:54.38 | 87854 | 145941
3 | 32:25.67 | 19:27.17 | 145942 | 233483
Range status and errors
Selected range
Filename K:\ЕАС\Zingaro, Cappozzo, Bourdellon, Lelievre - Live At Total Meeting.wav
Peak level 96.6 %
Extraction speed 1.9 X
Range quality 99.9 %
Test CRC 5042F40B
Copy CRC 5042F40B
Copy OK
No errors occurred
AccurateRip summary
Track 1 not present in database
Track 2 not present in database
Track 3 not present in database
None of the tracks are present in the AccurateRip database
End of status report
==== Log checksum DBAF8167BDEE3AE817C0036C8BD0BBE968CE2BE8138C5638F4C8563FB48D24B6 ====
 
Содержание индексной карты (.CUE)
REM GENRE Jazz
REM DATE 2012
REM DISCID 230C2903
REM COMMENT "ExactAudioCopy v1.0b2"
PERFORMER "Zingaro, Cappozzo, Bourdellon, Lelievre"
TITLE "Live At Total Meeting"
FILE "Zingaro, Cappozzo, Bourdellon, Lelievre - Live At Total Meeting.flac" WAVE
TRACK 01 AUDIO
TITLE "Total 1"
PERFORMER "Zingaro, Cappozzo, Bourdellon, Lelievre"
ISRC 000000000000
INDEX 01 00:00:00
TRACK 02 AUDIO
TITLE "Total 2"
PERFORMER "Zingaro, Cappozzo, Bourdellon, Lelievre"
ISRC 000000000000
INDEX 00 19:28:29
INDEX 01 19:31:29
TRACK 03 AUDIO
TITLE "Total 3"
PERFORMER "Zingaro, Cappozzo, Bourdellon, Lelievre"
ISRC 000000000000
INDEX 00 32:22:67
INDEX 01 32:25:67
Доп. информация: Recorded in December, 2010 by France Musique during the Total Meeting Festival in Le Petit Faucheux, Tours, France
 
Состав
Flute [Flutes], Bass Clarinet – Jerome Bourdellon
Percussion – Nicolas Lelievre
Trumpet, Bugle – Jean Luc Cappozzo
Violin – Carlos Alves “Zingaro”
По всем вопросам пишите личное сообщение пользователю M0p94ok.
16:26
185
Нет комментариев. Ваш будет первым!