Вы используете незарегистрированную версию компонента "Вкладки"!

Поиск

(Free Improvisation, Altri Suoni) Laurent Wyler Trio (Christophe Berthet, Denis Favrichon) - Personal Music - 2000, FLAC (tracks+.cue), lossless

(Free Improvisation, Altri Suoni) Laurent Wyler Trio (Christophe Berthet, Denis Favrichon) - Personal Music - 2000, FLAC (tracks+.cue), lossless
Треклист:
Laurent Wyler Trio / Personal Music
Жанр: Free Improvisation, Altri Suoni
Страна-производитель диска: Switzerland
Год издания: 2000
Издатель (лейбл): Altri Suoni
Номер по каталогу: AS 074
Аудиокодек: FLAC (*.flac)
Тип рипа: tracks+.cue
Битрейт аудио: lossless
Продолжительность: 1:00:12
Источник (релизер): Max Monteiro
Наличие сканов в содержимом раздачи: нет
Треклист:
1. Autour de la noire 5:48
2. La Balle au bond 7:18
3. Ri-Rab Hôtel 7:36
4. Aux mages 10:25
5. Huga-Huga 3:37
6. La Promenade 6:17
7. Décomposition 5:46
8. Allumine 5:48
9. Noir et Blanc 7:37
Toutes les compositions par Laurent Wyler sauf « Ri-Rab Hôtel » par Christophe Berthet.
Enregistrement les 26-27-28 avril 2000 au studio AXIS Genève.
Christophe Berthet – saxophones soprano et alto, clarinette basse
Denis Favrichon – contrebasse, basse électrique
Laurent Wyler – batterie
Sur « Aux mages » :
François Guye – violoncelle
Pascal Schaer – trombone
 
Лог создания рипа
Exact Audio Copy V1.0 beta 3 from 29. August 2011
EAC extraction logfile from 26. July 2013, 11:03
Laurent Wyler Trio / Personal Music
Used drive : SlimtypeeNAU508 5 Adapter: 1 ID: 0
Read mode : Secure
Utilize accurate stream : Yes
Defeat audio cache : Yes
Make use of C2 pointers : No
Read offset correction : 6
Overread into Lead-In and Lead-Out : No
Fill up missing offset samples with silence : Yes
Delete leading and trailing silent blocks : No
Null samples used in CRC calculations : Yes
Used interface : Native Win32 interface for Win NT & 2000
Gap handling : Appended to previous track
Used output format : User Defined Encoder
Selected bitrate : 768 kBit/s
Quality : High
Add ID3 tag : No
Command line compressor : C:\Program Files (x86)\Exact Audio Copy\Flac\flac.exe
Additional command line options : -8 -V -T "ARTIST=%artist%" -T "TITLE=%title%" -T "ALBUM=%albumtitle%" -T "DATE=%year%" -T "TRACKNUMBER=%tracknr%" -T "GENRE=%genre%" -T "PERFORMER=%albuminterpret%" -T "COMPOSER=%composer%" %haslyrics%--tag-from-file=LYRICS="%lyricsfile%"%haslyrics% -T "ALBUMARTIST=%albumartist%" -T "DISCNUMBER=%cdnumber%" -T "TOTALDISCS=%totalcds%" -T "TOTALTRACKS=%numtracks%" -T "COMMENT=%comment%" %source% -o %dest%
TOC of the extracted CD
Track | Start | Length | Start sector | End sector
---------------------------------------------------------
1 | 0:00.00 | 5:48.04 | 0 | 26103
2 | 5:48.04 | 7:17.50 | 26104 | 58928
3 | 13:05.54 | 7:36.08 | 58929 | 93136
4 | 20:41.62 | 10:24.58 | 93137 | 139994
5 | 31:06.45 | 3:36.74 | 139995 | 156268
6 | 34:43.44 | 6:17.20 | 156269 | 184563
7 | 41:00.64 | 5:46.12 | 184564 | 210525
8 | 46:47.01 | 5:47.41 | 210526 | 236591
9 | 52:34.42 | 7:37.28 | 236592 | 270894
Track 1
Filename C:\EAC rips\01 - Autour de la noire.wav
Pre-gap length 0:00:02.00
Peak level 98.4 %
Extraction speed 2.2 X
Track quality 100.0 %
Test CRC D9F908F3
Copy CRC D9F908F3
Track not present in AccurateRip database
Copy OK
Track 2
Filename C:\EAC rips\02 - La Balle au bond.wav
Pre-gap length 0:00:02.44
Peak level 95.1 %
Extraction speed 2.7 X
Track quality 100.0 %
Test CRC E751AED9
Copy CRC E751AED9
Track not present in AccurateRip database
Copy OK
Track 3
Filename C:\EAC rips\03 - Ri-Rab Hôtel.wav
Pre-gap length 0:00:02.13
Peak level 94.8 %
Extraction speed 2.9 X
Track quality 100.0 %
Test CRC 4B84CDF8
Copy CRC 4B84CDF8
Track not present in AccurateRip database
Copy OK
Track 4
Filename C:\EAC rips\04 - Aux mages.wav
Pre-gap length 0:00:03.29
Peak level 88.1 %
Extraction speed 3.2 X
Track quality 99.9 %
Test CRC A78DAB59
Copy CRC A78DAB59
Track not present in AccurateRip database
Copy OK
Track 5
Filename C:\EAC rips\05 - Huga-Huga.wav
Pre-gap length 0:00:02.14
Peak level 100.0 %
Extraction speed 3.4 X
Track quality 100.0 %
Test CRC B3E9E0F7
Copy CRC B3E9E0F7
Track not present in AccurateRip database
Copy OK
Track 6
Filename C:\EAC rips\06 - La Promenade.wav
Pre-gap length 0:00:03.51
Peak level 100.0 %
Extraction speed 3.8 X
Track quality 100.0 %
Test CRC F7437566
Copy CRC F7437566
Track not present in AccurateRip database
Copy OK
Track 7
Filename C:\EAC rips\07 - Décomposition.wav
Pre-gap length 0:00:03.36
Peak level 90.3 %
Extraction speed 3.7 X
Track quality 100.0 %
Test CRC 16BF5919
Copy CRC 16BF5919
Track not present in AccurateRip database
Copy OK
Track 8
Filename C:\EAC rips\08 - Allumine.wav
Pre-gap length 0:00:04.30
Peak level 84.7 %
Extraction speed 3.6 X
Track quality 100.0 %
Test CRC A042845C
Copy CRC A042845C
Track not present in AccurateRip database
Copy OK
Track 9
Filename C:\EAC rips\09 - Noir et Blanc.wav
Pre-gap length 0:00:03.56
Peak level 99.9 %
Extraction speed 4.1 X
Track quality 100.0 %
Test CRC B623F57E
Copy CRC B623F57E
Track not present in AccurateRip database
Copy OK
None of the tracks are present in the AccurateRip database
No errors occurred
End of status report
---- CUETools DB Plugin V2.1.4
[CTDB TOCID: 7hWyqil1yIGI2AW0JdUl0w2NtjM-] disk not present in database
Submit result: 7hWyqil1yIGI2AW0JdUl0w2NtjM- has been uploaded
==== Log checksum 13BA09A968D4F92B8AA5D4480DD011FB5677BF2E4DA5DEB57CCA3DA4581F74DA ====
 
Содержание индексной карты (.CUE)
REM GENRE Jazz
REM DATE 2000
REM DISCID 800E1B09
REM COMMENT "ExactAudioCopy v1.0b3"
CATALOG 7619993000749
PERFORMER "Laurent Wyler Trio"
TITLE "Personal Music"
FILE "01 - Autour de la noire.wav" WAVE
TRACK 01 AUDIO
TITLE "Autour de la noire"
PERFORMER "Laurent Wyler Trio"
ISRC CH1880000001
INDEX 01 00:00:00
TRACK 02 AUDIO
TITLE "La Balle au bond"
PERFORMER "Laurent Wyler Trio"
ISRC CH1880000002
INDEX 00 05:45:35
FILE "02 - La Balle au bond.wav" WAVE
INDEX 01 00:00:00
TRACK 03 AUDIO
TITLE "Ri-Rab Hôtel"
PERFORMER "Laurent Wyler Trio"
ISRC CH1880000003
INDEX 00 07:15:37
FILE "03 - Ri-Rab Hôtel.wav" WAVE
INDEX 01 00:00:00
TRACK 04 AUDIO
TITLE "Aux mages"
PERFORMER "Laurent Wyler Trio"
ISRC CH1880000004
INDEX 00 07:32:54
FILE "04 - Aux mages.wav" WAVE
INDEX 01 00:00:00
TRACK 05 AUDIO
TITLE "Huga-Huga"
PERFORMER "Laurent Wyler Trio"
ISRC CH1880000005
INDEX 00 10:22:44
FILE "05 - Huga-Huga.wav" WAVE
INDEX 01 00:00:00
TRACK 06 AUDIO
TITLE "La Promenade"
PERFORMER "Laurent Wyler Trio"
ISRC CH1880000006
INDEX 00 03:33:23
FILE "06 - La Promenade.wav" WAVE
INDEX 01 00:00:00
TRACK 07 AUDIO
TITLE "Décomposition"
PERFORMER "Laurent Wyler Trio"
ISRC CH1880000007
INDEX 00 06:13:59
FILE "07 - Décomposition.wav" WAVE
INDEX 01 00:00:00
TRACK 08 AUDIO
TITLE "Allumine"
PERFORMER "Laurent Wyler Trio"
ISRC CH1880000008
INDEX 00 05:41:57
FILE "08 - Allumine.wav" WAVE
INDEX 01 00:00:00
TRACK 09 AUDIO
TITLE "Noir et Blanc"
PERFORMER "Laurent Wyler Trio"
ISRC CH1880000009
INDEX 00 05:43:60
FILE "09 - Noir et Blanc.wav" WAVE
INDEX 01 00:00:00
Any questions -> support@pro-jazz.com. По всем вопросам пишите -> support@pro-jazz.com
16:43
191
Нет комментариев. Ваш будет первым!