Вы используете незарегистрированную версию компонента "Вкладки"!

Поиск

(Avant-garde,Modern Creative,Post-Bop) Lucien Dubuis' Crossover Jazz Trio - Sumo - 2000, FLAC (image+.cue), lossless

(Avant-garde,Modern Creative,Post-Bop) Lucien Dubuis' Crossover Jazz Trio - Sumo - 2000, FLAC (image+.cue), lossless
Треклист:
Lucien Dubuis' Crossover Jazz Trio / Sumo
Жанр: Avant-garde,Modern Creative,Post-Bop
Год издания: 2000
Аудиокодек: FLAC (*.flac)
Тип рипа: image+.cue
Битрейт аудио: lossless
Продолжительность: 45:46
Источник (релизер): my disc
Наличие сканов в содержимом раздачи: да
Треклист:
01. La Danse Des Machines [0:06:43.00]
02. 323 [0:05:15.72]
03. Sumo - Part 1 [0:00:48.43]
04. Encore Une P'tite Ronde (Pour Les Machines) [0:07:22.27]
05. Sumo - Part 2 [0:00:33.05]
06. Rolf & Gigi [0:04:52.45]
07. Sumo - Part 3 [0:01:17.27]
08. Le Rer (Pour Dania) [0:05:13.63]
09. Sumo - Part 4 [0:00:40.06]
10. Les Tribulations De Horst Tappert A Montreux-Plage [0:03:08.70]
11. Sumo - Part 5 [0:00:40.08]
12. Le Gateau A La Rhubarbe [0:04:56.47]
13. Tata (Berceuse Pour Mateo) [0:04:13.32]
 
Лог создания рипа
Exact Audio Copy V0.99 prebeta 4 from 23. January 2008
Отчёт EAC об извлечении, выполненном 30. июля 2013, 7:37
Lucien Dubuis' Crossover Jazz Trio / Sumo
Дисковод: ASUS DRW-1814BL Adapter: 1 ID: 0
Режим чтения : Достоверность
Использование точного потока : Да
Отключение кэша аудио : Да
Использование указателей C2 : Нет
Коррекция смещения при чтении : 6
Способность читать области Lead-in и Lead-out : Нет
Заполнение пропущенных сэмплов тишиной : Да
Удаление блоков с тишиной в начале и конце : Нет
При вычислениях CRC использовались нулевые сэмплы : Да
Интерфейс : Установленный внешний ASPI-интерфейс
Выходной формат : Пользовательский кодировщик
Выбранный битрейт : 1024 kBit/s
Качество : Высокий
Добавление ID3-тэга : Нет
Утилита сжатия : C:\Program Files\Exact Audio Copy\FLAC\FLAC.EXE
Дополнительные параметры : -6 -V -T "ARTIST=%a" -T "TITLE=%t" -T "ALBUM=%g" -T "DATE=%y" -T "TRACKNUMBER=%n" -T "GENRE=%m" -T "COMMENT=%e" %s -o %d
TOC извлечённого CD
Трек | Старт | Длительность | Начальный сектор | Конечный сектор
---------------------------------------------------------------------
1 | 0:00.00 | 6:43.00 | 0 | 30224
2 | 6:43.00 | 5:15.72 | 30225 | 53921
3 | 11:58.72 | 0:48.43 | 53922 | 57564
4 | 12:47.40 | 7:22.27 | 57565 | 90741
5 | 20:09.67 | 0:33.05 | 90742 | 93221
6 | 20:42.72 | 4:52.45 | 93222 | 115166
7 | 25:35.42 | 1:17.27 | 115167 | 120968
8 | 26:52.69 | 5:13.63 | 120969 | 144506
9 | 32:06.57 | 0:40.06 | 144507 | 147512
10 | 32:46.63 | 3:08.70 | 147513 | 161682
11 | 35:55.58 | 0:40.08 | 161683 | 164690
12 | 36:35.66 | 4:56.47 | 164691 | 186937
13 | 41:32.38 | 4:13.32 | 186938 | 205944
Характеристики диапазона извлечения и сообщения об ошибках
Выбранный диапазон
Имя файла D:\loSSleSS\Lucien Dubuis'00\Lucien Dubuis' Crossover Jazz Trio - Sumo.wav
Пиковый уровень 96.6 %
Качество диапазона 99.9 %
CRC теста 3844D25B
CRC копии 3844D25B
Копирование... OK
Ошибок не произошло
AccurateRip: сводка
Трек 1 нет в базе данных
Трек 2 нет в базе данных
Трек 3 нет в базе данных
Трек 4 нет в базе данных
Трек 5 нет в базе данных
Трек 6 нет в базе данных
Трек 7 нет в базе данных
Трек 8 нет в базе данных
Трек 9 нет в базе данных
Трек 10 нет в базе данных
Трек 11 нет в базе данных
Трек 12 нет в базе данных
Трек 13 нет в базе данных
Ни одного трека нет в базе AccurateRip
Конец отчёта
 
Об исполнителе (группе)
Великий Марк Рибо сказал о трио Люсьена Дюбуа следующее: «Если вам действительно интересно, что такое downtown образца 1982 года, сходите и послушайте этих швейцарских парней, которым едва за двадцать». Это было бы сравнительно двусмысленным комплиментом, учитывая, что сам Марк Рибо ту музыку и успешно создавал, и успешно перерос; однако это было сказано именно о Люсьене времён «едва за двадцать», тогда как сегодня ему почти сорок и его музыка всё это время прогрессировала. Сегодня он сам характеризует её как «future rock», «рок будущего». Это творчество, в котором смешиваются все мыслимые влияния, подчинённые главной идее (заложенной, что характерно, и в концепцию «МузЭнергоТура») — энергетике. А разрабатывает Дюбуа свою музыкальную нишу, основываясь на собственных «трёх китах» музыки: это юмор, свобода и игровое начало. Нетрудно предсказать, что получающийся на выходе материал одновременно непрост, колюч, привлекателен и по-хорошему безумен…
Рибо, к слову, время от времени играет вместе со швейцарским саксофонистом до сих пор. В 2009 году, например, на известном лейбле Enja вышел из совместный диск «Ultime Cosmos». Но трио Дюбуа есть что сказать миру и без привлечения всемирно известной звезды: ещё с 1998 года ансамбль играет на самых неожиданных сценах планеты и пользуется, как один из наиболее оригинальных коллективов страны, специальной поддержкой швейцарского Совета по вопросам искусства. В 2010-м году трио даже удостоилось чести представлять Швейцарию на Всемирной выставке в Шанхае — что, мягко говоря, является не самым распространённым достижением среди ансамблей, играющих что-то равно далёкое от фольклора, классики и беззубой современной эстрады.У лидера состава на счету более 20 альбомов (пять из них — в составе трио). Среди тех, с кем ему довелось работать — известнейшие импровизаторы и представители новой музыки: Ханс Кох, Ричи Бейрах, Калле Калима, Барри Гай и многие другие.В классическом составе трио гитаристом выступает Роман Новка, однако для участия в «МузЭнергоТуре» Люсьеном приглашён интереснейший музыкант из Цюриха Флориан «Фло» Стоффнер, играющий на редкой баритон-гитаре.
 
Состав
Lucien Dubuis: Alto & Tenor Saxophones, Contrabass Clarinet, Xylophone
Simon Gerber: Bass, Vocals, Slide Guitar, Sousaphone
Lionel Friedli: Drums
Any questions -> support@pro-jazz.com. По всем вопросам пишите -> support@pro-jazz.com
16:44
209
Нет комментариев. Ваш будет первым!