Вы используете незарегистрированную версию компонента "Вкладки"!

Поиск

(Free Improvisation, Altri Suoni) Francois Jeanneau, Jean-Paul Celea, Leonzio Cherubini - Framework - 2000, FLAC (tracks+.cue), lossless

(Free Improvisation, Altri Suoni) Francois Jeanneau, Jean-Paul Celea, Leonzio Cherubini - Framework - 2000, FLAC (tracks+.cue), lossless
Треклист:
François Jeanneau, Jean-Paul Celea, Leonzio Cherubini / Framework
Жанр: Free Improvisation, Altri Suoni
Страна-производитель диска: Switzerland
Год издания: 2000
Издатель (лейбл): Altri Suoni
Номер по каталогу: AS 075
Аудиокодек: FLAC (*.flac)
Тип рипа: tracks+.cue
Битрейт аудио: lossless
Продолжительность: 42:20
Источник (релизер): Max Monteiro
Наличие сканов в содержимом раздачи: нет
Треклист:
01. Wide 6:31
02. Leave (duo sax & bass) 4:59
03. Rosalie 3:31
04. Whispering (Jeanneau / Celea / Cherubini) 1:26
05. Pink 3:26
06. Accent (Jeanneau / Celea / Cherubini) 0:56
07. Insight 1:42
08. Aslope (solo drums) 0:42
09. Comment (duo bass & drums) 3:34
10. Look 3:12
11. Loosely (Jeanneau / Celea / Cherubini) 1:49
12. Writing 3:01
13. Facet (duo sax & drums) 4:00
14. Absence 3:32
All titles by Leonzio Cherubini except where indicated.
Recorded on April 13 & 14, 2000 at Studio du Flon, Lausanne, Switzerland.
François Jeanneau – Soprano Sax
Jean-Paul Celea – Bass
Leonzio Cherubini – Drums
 
Лог создания рипа
Exact Audio Copy V1.0 beta 3 from 29. August 2011
EAC extraction logfile from 26. July 2013, 15:25
François Jeanneau, Jean-Paul Celea, Leonzio Cherubini / Framework
Used drive : SlimtypeeNAU508 5 Adapter: 1 ID: 0
Read mode : Secure
Utilize accurate stream : Yes
Defeat audio cache : Yes
Make use of C2 pointers : No
Read offset correction : 6
Overread into Lead-In and Lead-Out : No
Fill up missing offset samples with silence : Yes
Delete leading and trailing silent blocks : No
Null samples used in CRC calculations : Yes
Used interface : Native Win32 interface for Win NT & 2000
Gap handling : Appended to previous track
Used output format : User Defined Encoder
Selected bitrate : 768 kBit/s
Quality : High
Add ID3 tag : No
Command line compressor : C:\Program Files (x86)\Exact Audio Copy\Flac\flac.exe
Additional command line options : -8 -V -T "ARTIST=%artist%" -T "TITLE=%title%" -T "ALBUM=%albumtitle%" -T "DATE=%year%" -T "TRACKNUMBER=%tracknr%" -T "GENRE=%genre%" -T "PERFORMER=%albuminterpret%" -T "COMPOSER=%composer%" %haslyrics%--tag-from-file=LYRICS="%lyricsfile%"%haslyrics% -T "ALBUMARTIST=%albumartist%" -T "DISCNUMBER=%cdnumber%" -T "TOTALDISCS=%totalcds%" -T "TOTALTRACKS=%numtracks%" -T "COMMENT=%comment%" %source% -o %dest%
TOC of the extracted CD
Track | Start | Length | Start sector | End sector
---------------------------------------------------------
1 | 0:00.00 | 6:30.47 | 0 | 29296
2 | 6:30.47 | 4:58.49 | 29297 | 51695
3 | 11:29.21 | 3:31.18 | 51696 | 67538
4 | 15:00.39 | 1:25.60 | 67539 | 73973
5 | 16:26.24 | 3:25.57 | 73974 | 89405
6 | 19:52.06 | 0:55.68 | 89406 | 93598
7 | 20:47.74 | 1:42.16 | 93599 | 101264
8 | 22:30.15 | 0:41.49 | 101265 | 104388
9 | 23:11.64 | 3:34.05 | 104389 | 120443
10 | 26:45.69 | 3:12.05 | 120444 | 134848
11 | 29:57.74 | 1:48.59 | 134849 | 143007
12 | 31:46.58 | 3:01.28 | 143008 | 156610
13 | 34:48.11 | 4:00.02 | 156611 | 174612
14 | 38:48.13 | 3:31.47 | 174613 | 190484
Track 1
Filename C:\EAC rips\01 - Wide.wav
Pre-gap length 0:00:02.00
Peak level 94.7 %
Extraction speed 1.1 X
Track quality 100.0 %
Test CRC E6F17478
Copy CRC E6F17478
Track not present in AccurateRip database
Copy OK
Track 2
Filename C:\EAC rips\02 - Leave.wav
Pre-gap length 0:00:03.35
Peak level 91.4 %
Extraction speed 1.3 X
Track quality 100.0 %
Test CRC 0B90B305
Copy CRC 0B90B305
Track not present in AccurateRip database
Copy OK
Track 3
Filename C:\EAC rips\03 - Rosalie.wav
Pre-gap length 0:00:00.20
Peak level 94.1 %
Extraction speed 1.3 X
Track quality 100.0 %
Test CRC BA4DFBD1
Copy CRC BA4DFBD1
Track not present in AccurateRip database
Copy OK
Track 4
Filename C:\EAC rips\04 - Whispering.wav
Pre-gap length 0:00:04.20
Peak level 91.8 %
Extraction speed 1.1 X
Track quality 100.0 %
Test CRC FFC0CA97
Copy CRC FFC0CA97
Track not present in AccurateRip database
Copy OK
Track 5
Filename C:\EAC rips\05 - Pink.wav
Pre-gap length 0:00:03.36
Peak level 94.2 %
Extraction speed 1.4 X
Track quality 100.0 %
Test CRC 10D8EC56
Copy CRC 10D8EC56
Track not present in AccurateRip database
Copy OK
Track 6
Filename C:\EAC rips\06 - Accent.wav
Pre-gap length 0:00:03.26
Peak level 96.3 %
Extraction speed 1.0 X
Track quality 100.0 %
Test CRC D8AF1461
Copy CRC D8AF1461
Track not present in AccurateRip database
Copy OK
Track 7
Filename C:\EAC rips\07 - Insight.wav
Pre-gap length 0:00:01.53
Peak level 87.9 %
Extraction speed 1.0 X
Track quality 99.8 %
Test CRC F820E895
Copy CRC F820E895
Track not present in AccurateRip database
Copy OK
Track 8
Filename C:\EAC rips\08 - Aslope.wav
Pre-gap length 0:00:04.38
Peak level 96.1 %
Extraction speed 0.9 X
Track quality 100.0 %
Test CRC A7FB6515
Copy CRC A7FB6515
Track not present in AccurateRip database
Copy OK
Track 9
Filename C:\EAC rips\09 - Comment.wav
Pre-gap length 0:00:02.64
Peak level 97.1 %
Extraction speed 1.6 X
Track quality 100.0 %
Test CRC 5732F534
Copy CRC 5732F534
Track not present in AccurateRip database
Copy OK
Track 10
Filename C:\EAC rips\10 - Look.wav
Pre-gap length 0:00:02.00
Peak level 100.0 %
Extraction speed 1.6 X
Track quality 100.0 %
Test CRC 737A32BD
Copy CRC 737A32BD
Track not present in AccurateRip database
Copy OK
Track 11
Filename C:\EAC rips\11 - Loosely.wav
Pre-gap length 0:00:03.01
Peak level 91.2 %
Extraction speed 1.4 X
Track quality 100.0 %
Test CRC 7202B875
Copy CRC 7202B875
Track not present in AccurateRip database
Copy OK
Track 12
Filename C:\EAC rips\12 - Writing.wav
Pre-gap length 0:00:02.56
Peak level 91.6 %
Extraction speed 1.7 X
Track quality 100.0 %
Test CRC F1C195AD
Copy CRC F1C195AD
Track not present in AccurateRip database
Copy OK
Track 13
Filename C:\EAC rips\13 - Facet.wav
Pre-gap length 0:00:03.04
Peak level 99.0 %
Extraction speed 1.6 X
Track quality 99.9 %
Test CRC 8DB87958
Copy CRC 8DB87958
Track not present in AccurateRip database
Copy OK
Track 14
Filename C:\EAC rips\14 - Absence.wav
Pre-gap length 0:00:00.63
Peak level 92.7 %
Extraction speed 1.9 X
Track quality 100.0 %
Test CRC 99CCAB89
Copy CRC 99CCAB89
Track not present in AccurateRip database
Copy OK
None of the tracks are present in the AccurateRip database
No errors occurred
End of status report
---- CUETools DB Plugin V2.1.4
[CTDB TOCID: .mHbyUQjH_KcApzTnrUv541bRYo-] disk not present in database
Submit result: .mHbyUQjH_KcApzTnrUv541bRYo- has been uploaded
==== Log checksum 6BA38D9E87DE413774A2CC9EC584F1F9E3C8CED26E78EF8BC0339CFCC0FAF732 ====
 
Содержание индексной карты (.CUE)
REM GENRE Jazz
REM DATE 2000
REM DISCID CB09EB0E
REM COMMENT "ExactAudioCopy v1.0b3"
CATALOG 7619993000756
PERFORMER "François Jeanneau, Jean-Paul Celea, Leonzio Cherubini"
TITLE "Framework"
FILE "01 - Wide.wav" WAVE
TRACK 01 AUDIO
TITLE "Wide"
PERFORMER "François Jeanneau, Jean-Paul Celea, Leonzio Cherubini"
ISRC CH1880000001
INDEX 01 00:00:00
TRACK 02 AUDIO
TITLE "Leave"
PERFORMER "François Jeanneau, Jean-Paul Celea, Leonzio Cherubini"
ISRC CH1880000002
INDEX 00 06:27:12
FILE "02 - Leave.wav" WAVE
INDEX 01 00:00:00
TRACK 03 AUDIO
TITLE "Rosalie"
PERFORMER "François Jeanneau, Jean-Paul Celea, Leonzio Cherubini"
ISRC CH1880000003
INDEX 00 04:58:29
FILE "03 - Rosalie.wav" WAVE
INDEX 01 00:00:00
TRACK 04 AUDIO
TITLE "Whispering"
PERFORMER "François Jeanneau, Jean-Paul Celea, Leonzio Cherubini"
ISRC CH1880000004
INDEX 00 03:26:73
FILE "04 - Whispering.wav" WAVE
INDEX 01 00:00:00
TRACK 05 AUDIO
TITLE "Pink"
PERFORMER "François Jeanneau, Jean-Paul Celea, Leonzio Cherubini"
ISRC CH1880000005
INDEX 00 01:22:24
FILE "05 - Pink.wav" WAVE
INDEX 01 00:00:00
TRACK 06 AUDIO
TITLE "Accent"
PERFORMER "François Jeanneau, Jean-Paul Celea, Leonzio Cherubini"
ISRC CH1880000006
INDEX 00 03:22:31
FILE "06 - Accent.wav" WAVE
INDEX 01 00:00:00
TRACK 07 AUDIO
TITLE "Insight"
PERFORMER "François Jeanneau, Jean-Paul Celea, Leonzio Cherubini"
ISRC CH1880000007
INDEX 00 00:54:15
FILE "07 - Insight.wav" WAVE
INDEX 01 00:00:00
TRACK 08 AUDIO
TITLE "Aslope"
PERFORMER "François Jeanneau, Jean-Paul Celea, Leonzio Cherubini"
ISRC CH1880000008
INDEX 00 01:37:53
FILE "08 - Aslope.wav" WAVE
INDEX 01 00:00:00
TRACK 09 AUDIO
TITLE "Comment"
PERFORMER "François Jeanneau, Jean-Paul Celea, Leonzio Cherubini"
ISRC CH1880000009
INDEX 00 00:38:60
FILE "09 - Comment.wav" WAVE
INDEX 01 00:00:00
TRACK 10 AUDIO
TITLE "Look"
PERFORMER "François Jeanneau, Jean-Paul Celea, Leonzio Cherubini"
ISRC CH1880000010
INDEX 00 03:32:05
FILE "10 - Look.wav" WAVE
INDEX 01 00:00:00
TRACK 11 AUDIO
TITLE "Loosely"
PERFORMER "François Jeanneau, Jean-Paul Celea, Leonzio Cherubini"
ISRC CH1880000011
INDEX 00 03:09:04
FILE "11 - Loosely.wav" WAVE
INDEX 01 00:00:00
TRACK 12 AUDIO
TITLE "Writing"
PERFORMER "François Jeanneau, Jean-Paul Celea, Leonzio Cherubini"
ISRC CH1880000012
INDEX 00 01:46:03
FILE "12 - Writing.wav" WAVE
INDEX 01 00:00:00
TRACK 13 AUDIO
TITLE "Facet"
PERFORMER "François Jeanneau, Jean-Paul Celea, Leonzio Cherubini"
ISRC CH1880000013
INDEX 00 02:58:24
FILE "13 - Facet.wav" WAVE
INDEX 01 00:00:00
TRACK 14 AUDIO
TITLE "Absence"
PERFORMER "François Jeanneau, Jean-Paul Celea, Leonzio Cherubini"
ISRC CH1880000014
INDEX 00 03:59:14
FILE "14 - Absence.wav" WAVE
INDEX 01 00:00:00
Any questions -> support@pro-jazz.com. По всем вопросам пишите -> support@pro-jazz.com
16:33
148
Нет комментариев. Ваш будет первым!