Вы используете незарегистрированную версию компонента "Вкладки"!

Поиск

(Modern Jazz, Free Jazz, Avant-Garde) Ben Dietschi & Andrew Oliver Quartet - Parallax - 2013, FLAC (tracks+.cue), lossless

(Modern Jazz, Free Jazz, Avant-Garde) Ben Dietschi & Andrew Oliver Quartet - Parallax - 2013, FLAC (tracks+.cue), lossless
Треклист:
Ben Dietschi & Andrew Oliver Quartet - Parallax
Жанр: Modern Jazz, Free Jazz, Avant-Garde
Страна-производитель диска: USA
Год издания: 2013
Издатель (лейбл): PJCE Records
Номер по каталогу: PJCE 006
Страна: Canada / USA
Аудиокодек: FLAC (*.flac)
Тип рипа: tracks+.cue
Битрейт аудио: lossless
Продолжительность: 40:00
Источник (релизер): losslessinside
Наличие сканов в содержимом раздачи: front, back
Треклист:
01. Chorale (05:43)
02. Parallax (03:06)
03. Nest (04:55)
04. The Glovemaker (04:26)
05. Invisible Beats (04:15)
06. Berretin (04:49)
07. Prawn Song (04:36)
08. Finished Products I (04:50)
09. Timescape (03:20)
 
Лог создания рипа
Exact Audio Copy V1.0 beta 3 from 29. August 2011
EAC extraction logfile from 12. July 2013, 21:37
Ben Dietschi & Andrew Oliver Quartet / Parallax
Used drive : hp CDDVDW TS-L633N Adapter: 0 ID: 0
Read mode : Secure
Utilize accurate stream : Yes
Defeat audio cache : Yes
Make use of C2 pointers : No
Read offset correction : 6
Overread into Lead-In and Lead-Out : No
Fill up missing offset samples with silence : Yes
Delete leading and trailing silent blocks : No
Null samples used in CRC calculations : Yes
Used interface : Native Win32 interface for Win NT & 2000
Gap handling : Appended to previous track
Used output format : User Defined Encoder
Selected bitrate : 1024 kBit/s
Quality : High
Add ID3 tag : No
Command line compressor : C:\Program Files (x86)\Exact Audio Copy\Flac\flac.exe
Additional command line options : -8 -V -T "ARTIST=%artist%" -T "TITLE=%title%" -T "ALBUM=%albumtitle%" -T "DATE=%year%" -T "TRACKNUMBER=%tracknr%" -T "GENRE=%genre%" -T "PERFORMER=%albuminterpret%" -T "COMPOSER=%composer%" %haslyrics%--tag-from-file=LYRICS="%lyricsfile%"%haslyrics% -T "ALBUMARTIST=%albumartist%" -T "DISCNUMBER=%cdnumber%" -T "TOTALDISCS=%totalcds%" -T "TOTALTRACKS=%numtracks%" -T "COMMENT=%comment%" %source% -o %dest%
TOC of the extracted CD
Track | Start | Length | Start sector | End sector
---------------------------------------------------------
1 | 0:00.00 | 5:43.42 | 0 | 25766
2 | 5:43.42 | 3:06.50 | 25767 | 39766
3 | 8:50.17 | 4:55.45 | 39767 | 61936
4 | 13:45.62 | 4:26.05 | 61937 | 81891
5 | 18:11.67 | 4:15.28 | 81892 | 101044
6 | 22:27.20 | 4:49.66 | 101045 | 122785
7 | 27:17.11 | 4:36.63 | 122786 | 143548
8 | 31:53.74 | 4:50.46 | 143549 | 165344
9 | 36:44.45 | 3:20.21 | 165345 | 180365
Track 1
Filename C:\EAC\Ben Dietschi & Andrew Oliver Quartet - Parallax (2013) - FLAC\01 - Chorale.wav
Pre-gap length 0:00:02.00
Peak level 98.7 %
Extraction speed 0.6 X
Track quality 100.0 %
Test CRC 6ECB6628
Copy CRC 6ECB6628
Track not present in AccurateRip database
Copy OK
Track 2
Filename C:\EAC\Ben Dietschi & Andrew Oliver Quartet - Parallax (2013) - FLAC\02 - Parallax.wav
Peak level 84.8 %
Extraction speed 0.7 X
Track quality 100.0 %
Test CRC D40D8E78
Copy CRC D40D8E78
Track not present in AccurateRip database
Copy OK
Track 3
Filename C:\EAC\Ben Dietschi & Andrew Oliver Quartet - Parallax (2013) - FLAC\03 - Nest.wav
Peak level 100.0 %
Extraction speed 0.9 X
Track quality 100.0 %
Test CRC 89AA2296
Copy CRC 89AA2296
Track not present in AccurateRip database
Copy OK
Track 4
Filename C:\EAC\Ben Dietschi & Andrew Oliver Quartet - Parallax (2013) - FLAC\04 - The Glovemaker.wav
Peak level 100.0 %
Extraction speed 1.1 X
Track quality 100.0 %
Test CRC EF4BFFE4
Copy CRC EF4BFFE4
Track not present in AccurateRip database
Copy OK
Track 5
Filename C:\EAC\Ben Dietschi & Andrew Oliver Quartet - Parallax (2013) - FLAC\05 - Invisible Beats.wav
Peak level 100.0 %
Extraction speed 1.1 X
Track quality 100.0 %
Test CRC 86C2A55E
Copy CRC 86C2A55E
Track not present in AccurateRip database
Copy OK
Track 6
Filename C:\EAC\Ben Dietschi & Andrew Oliver Quartet - Parallax (2013) - FLAC\06 - Berretin.wav
Peak level 100.0 %
Extraction speed 1.9 X
Track quality 100.0 %
Test CRC CDD9EE1F
Copy CRC CDD9EE1F
Track not present in AccurateRip database
Copy OK
Track 7
Filename C:\EAC\Ben Dietschi & Andrew Oliver Quartet - Parallax (2013) - FLAC\07 - Prawn Song.wav
Peak level 100.0 %
Extraction speed 2.7 X
Track quality 100.0 %
Test CRC 1972F336
Copy CRC 1972F336
Track not present in AccurateRip database
Copy OK
Track 8
Filename C:\EAC\Ben Dietschi & Andrew Oliver Quartet - Parallax (2013) - FLAC\08 - Finished Products I.wav
Peak level 99.8 %
Extraction speed 4.0 X
Track quality 100.0 %
Test CRC 16561CAD
Copy CRC 16561CAD
Track not present in AccurateRip database
Copy OK
Track 9
Filename C:\EAC\Ben Dietschi & Andrew Oliver Quartet - Parallax (2013) - FLAC\09 - Timescape.wav
Peak level 97.8 %
Extraction speed 3.9 X
Track quality 100.0 %
Test CRC 9854B27C
Copy CRC 9854B27C
Track not present in AccurateRip database
Copy OK
None of the tracks are present in the AccurateRip database
No errors occurred
End of status report
---- CUETools DB Plugin V2.1.3
[CTDB TOCID: h53SfhB0rcvyMLh_iaD0JU0C.7A-] disk not present in database, Submit result: h53SfhB0rcvyMLh_iaD0JU0C.7A- has been uploaded
==== Log checksum A69D35F414183B729816C65A52D0C61ACF9907ADA79EF2E79A91498BB8BEEF7C ====
 
Содержание индексной карты (.CUE)
REM GENRE Jazz
REM DATE 2013
REM DISCID 74096409
REM COMMENT "ExactAudioCopy v1.0b3"
PERFORMER "Ben Dietschi & Andrew Oliver Quartet"
TITLE "Parallax"
FILE "01 - Chorale.wav" WAVE
TRACK 01 AUDIO
TITLE "Chorale"
PERFORMER "Ben Dietschi & Andrew Oliver Quartet"
INDEX 01 00:00:00
FILE "02 - Parallax.wav" WAVE
TRACK 02 AUDIO
TITLE "Parallax"
PERFORMER "Ben Dietschi & Andrew Oliver Quartet"
INDEX 01 00:00:00
FILE "03 - Nest.wav" WAVE
TRACK 03 AUDIO
TITLE "Nest"
PERFORMER "Ben Dietschi & Andrew Oliver Quartet"
INDEX 01 00:00:00
FILE "04 - The Glovemaker.wav" WAVE
TRACK 04 AUDIO
TITLE "The Glovemaker"
PERFORMER "Ben Dietschi & Andrew Oliver Quartet"
INDEX 01 00:00:00
FILE "05 - Invisible Beats.wav" WAVE
TRACK 05 AUDIO
TITLE "Invisible Beats"
PERFORMER "Ben Dietschi & Andrew Oliver Quartet"
INDEX 01 00:00:00
FILE "06 - Berretin.wav" WAVE
TRACK 06 AUDIO
TITLE "Berretin"
PERFORMER "Ben Dietschi & Andrew Oliver Quartet"
INDEX 01 00:00:00
FILE "07 - Prawn Song.wav" WAVE
TRACK 07 AUDIO
TITLE "Prawn Song"
PERFORMER "Ben Dietschi & Andrew Oliver Quartet"
INDEX 01 00:00:00
FILE "08 - Finished Products I.wav" WAVE
TRACK 08 AUDIO
TITLE "Finished Products I"
PERFORMER "Ben Dietschi & Andrew Oliver Quartet"
INDEX 01 00:00:00
FILE "09 - Timescape.wav" WAVE
TRACK 09 AUDIO
TITLE "Timescape"
PERFORMER "Ben Dietschi & Andrew Oliver Quartet"
INDEX 01 00:00:00
 
Лог проверки качества
AUDIOCHECKER v2.0 beta (build 457) - by Dester - opdester@freemail.hu
~~~~~~~~~~~~~~~~~~~~~~~~~~~~~~~~~~
-=== DO NOT EDIT THIS FILE! ===-
Path: ...\Ben Dietschi & Andrew Oliver Quartet - Parallax (2013) FLAC
1 -=- 01 - Chorale.flac -=- CDDA (100%)
2 -=- 02 - Parallax.flac -=- CDDA (100%)
3 -=- 03 - Nest.flac -=- CDDA (100%)
4 -=- 04 - The Glovemaker.flac -=- CDDA (100%)
5 -=- 05 - Invisible Beats.flac -=- CDDA (100%)
6 -=- 06 - Berretin.flac -=- CDDA (100%)
7 -=- 07 - Prawn Song.flac -=- CDDA (100%)
8 -=- 08 - Finished Products I.flac -=- CDDA (100%)
9 -=- 09 - Timescape.flac -=- CDDA (100%)
Summary 100,00% CDDA
224245492
 
Об альбоме (сборнике)

This album was a special one-off project for the June PJCE Records release from label co-director Andrew Oliver and Toronto-based saxophonist Ben Dietschi. Andrew and Ben have been playing together for 4 years in the cross-continental band Tunnel Sixand after their spring tour this year decided to team up with Portland bassist Bill Athens and drummer Stephen Pancerev for a session of open and spacious improvisations that gave them a chance to play in a different style from the rather highly composed material in Tunnel Six. The album features compositions by Andrew and Ben alongside more spontaneous improvisations.
 
Состав
Ben Dietschi - soprano and tenor sax
Andrew Oliver - piano
Bill Athens - bass
Stephen Pancerev - drums
Dan Duval - guitar (7, 9)
По всем вопросам пишите личное сообщение пользователю M0p94ok.
16:34
165
Нет комментариев. Ваш будет первым!