Вы используете незарегистрированную версию компонента "Вкладки"!

Поиск

(Avant-Garde Jazz, Free Jazz, Free Improvisation) Natsuki Tamura Quartet ‎– Exit - 2004, FLAC (tracks+.cue), lossless

(Avant-Garde Jazz, Free Jazz, Free Improvisation) Natsuki Tamura Quartet ‎– Exit - 2004, FLAC (tracks+.cue), lossless
Треклист:
Natsuki Tamura Quartet ‎– Exit
Жанр: Avant-Garde Jazz, Free Jazz, Free Improvisation
Год издания: 2004
Страна: Japan
Аудиокодек: FLAC (*.flac)
Тип рипа: tracks+.cue
Битрейт аудио: lossless
Продолжительность: 1:00:18
Источник (релизер): 6060842
Наличие сканов в содержимом раздачи: нет
Треклист:
1. Entrance 6:08
2. Endanger 10:42
3. Eliminate 26:24
4. Expired 12:30
5. Exit 4:19
 
Лог создания рипа
X Lossless Decoder version 20130602 (143.2)
XLD extraction logfile from 2013-06-17 16:16:51 +0400
Natsuki Tamura Quartet / Exit
Used drive : HL-DT-ST DVDRW GX30N (revision RP09)
Media type : Pressed CD
Ripper mode : XLD Secure Ripper
Disable audio cache : OK for the drive with a cache less than 1375KiB
Make use of C2 pointers : NO
Read offset correction : 6
Max retry count : 100
Gap status : Analyzed, Appended (except HTOA)
TOC of the extracted CD
Track | Start | Length | Start sector | End sector
---------------------------------------------------------
1 | 00:00:00 | 06:11:32 | 0 | 27856
2 | 06:11:32 | 10:44:40 | 27857 | 76196
3 | 16:55:72 | 26:28:33 | 76197 | 195329
4 | 43:24:30 | 12:34:17 | 195330 | 251896
5 | 55:58:47 | 04:19:63 | 251897 | 271384
AccurateRip Summary
Disc not found in AccurateRip DB.
All Tracks
Album gain : -4.33 dB
Peak : 0.914551
Statistics
Read error : 0
Jitter error (maybe fixed) : 0
Retry sector count : 0
Damaged sector count : 0
Track 01
Filename : /Users/anch/Music/FLAC/Natsuki Tamura Quartet - 2004 - Exit [MP3 320]/01 - Entrance.mp3
/Users/anch/Music/FLAC/Natsuki Tamura Quartet - 2004 - Exit [MP3 V0]/01 - Entrance.mp3
/Users/anch/Music/FLAC/Natsuki Tamura Quartet - 2004 - Exit [FLAC]/01 - Entrance.flac
Pre-gap length : 00:02:00
Track gain : -5.82 dB
Peak : 0.914551
CRC32 hash (test run) : BF0FC5DA
CRC32 hash : BF0FC5DA
CRC32 hash (skip zero) : 8A6C3433
AccurateRip v1 signature : 2858D094
AccurateRip v2 signature : 3F418AA8
->Track not present in AccurateRip database.
Statistics
Read error : 0
Jitter error (maybe fixed) : 0
Retry sector count : 0
Damaged sector count : 0
Track 02
Filename : /Users/anch/Music/FLAC/Natsuki Tamura Quartet - 2004 - Exit [MP3 320]/02 - Endanger.mp3
/Users/anch/Music/FLAC/Natsuki Tamura Quartet - 2004 - Exit [MP3 V0]/02 - Endanger.mp3
/Users/anch/Music/FLAC/Natsuki Tamura Quartet - 2004 - Exit [FLAC]/02 - Endanger.flac
Pre-gap length : 00:03:12
Track gain : -5.74 dB
Peak : 0.910156
CRC32 hash (test run) : 62E15F67
CRC32 hash : 62E15F67
CRC32 hash (skip zero) : BE8149FB
AccurateRip v1 signature : 6B613C93
AccurateRip v2 signature : A9284128
->Track not present in AccurateRip database.
Statistics
Read error : 0
Jitter error (maybe fixed) : 0
Retry sector count : 0
Damaged sector count : 0
Track 03
Filename : /Users/anch/Music/FLAC/Natsuki Tamura Quartet - 2004 - Exit [MP3 320]/03 - Eliminate.mp3
/Users/anch/Music/FLAC/Natsuki Tamura Quartet - 2004 - Exit [MP3 V0]/03 - Eliminate.mp3
/Users/anch/Music/FLAC/Natsuki Tamura Quartet - 2004 - Exit [FLAC]/03 - Eliminate.flac
Pre-gap length : 00:02:40
Track gain : -4.10 dB
Peak : 0.905792
CRC32 hash (test run) : 6DD03299
CRC32 hash : 6DD03299
CRC32 hash (skip zero) : 51CF298F
AccurateRip v1 signature : EC9E8E6E
AccurateRip v2 signature : 7C60E83E
->Track not present in AccurateRip database.
Statistics
Read error : 0
Jitter error (maybe fixed) : 0
Retry sector count : 0
Damaged sector count : 0
Track 04
Filename : /Users/anch/Music/FLAC/Natsuki Tamura Quartet - 2004 - Exit [MP3 320]/04 - Expired.mp3
/Users/anch/Music/FLAC/Natsuki Tamura Quartet - 2004 - Exit [MP3 V0]/04 - Expired.mp3
/Users/anch/Music/FLAC/Natsuki Tamura Quartet - 2004 - Exit [FLAC]/04 - Expired.flac
Pre-gap length : 00:03:55
Track gain : -1.58 dB
Peak : 0.905792
CRC32 hash (test run) : 140518E5
CRC32 hash : 140518E5
CRC32 hash (skip zero) : 794F80AD
AccurateRip v1 signature : D70C5CB1
AccurateRip v2 signature : 9FFA2E93
->Track not present in AccurateRip database.
Statistics
Read error : 0
Jitter error (maybe fixed) : 0
Retry sector count : 0
Damaged sector count : 0
Track 05
Filename : /Users/anch/Music/FLAC/Natsuki Tamura Quartet - 2004 - Exit [MP3 320]/05 - Exit.mp3
/Users/anch/Music/FLAC/Natsuki Tamura Quartet - 2004 - Exit [MP3 V0]/05 - Exit.mp3
/Users/anch/Music/FLAC/Natsuki Tamura Quartet - 2004 - Exit [FLAC]/05 - Exit.flac
Pre-gap length : 00:03:62
Track gain : 10.68 dB
Peak : 0.862976
CRC32 hash (test run) : B4EC1BFF
CRC32 hash : B4EC1BFF
CRC32 hash (skip zero) : 348A9080
AccurateRip v1 signature : D6B18755
AccurateRip v2 signature : B02823B7
->Track not present in AccurateRip database.
Statistics
Read error : 0
Jitter error (maybe fixed) : 0
Retry sector count : 0
Damaged sector count : 0
No errors occurred
End of status report
 
Содержание индексной карты (.CUE)
TITLE "Exit"
PERFORMER "Natsuki Tamura Quartet"
REM GENRE "Free Jazz"
REM DATE "2004"
REM DISCID 320E2205
REM REPLAYGAIN_ALBUM_GAIN -4.33 dB
REM REPLAYGAIN_ALBUM_PEAK 0.914551
FILE "01 - Entrance.flac" WAVE
TRACK 01 AUDIO
TITLE "Entrance"
PERFORMER "Natsuki Tamura Quartet"
REM REPLAYGAIN_TRACK_GAIN -5.82 dB
REM REPLAYGAIN_TRACK_PEAK 0.914551
INDEX 01 00:00:00
TRACK 02 AUDIO
TITLE "Endanger"
PERFORMER "Natsuki Tamura Quartet"
REM REPLAYGAIN_TRACK_GAIN -5.74 dB
REM REPLAYGAIN_TRACK_PEAK 0.910156
INDEX 00 06:08:20
FILE "02 - Endanger.flac" WAVE
INDEX 01 00:00:00
TRACK 03 AUDIO
TITLE "Eliminate"
PERFORMER "Natsuki Tamura Quartet"
REM REPLAYGAIN_TRACK_GAIN -4.10 dB
REM REPLAYGAIN_TRACK_PEAK 0.905792
INDEX 00 10:42:00
FILE "03 - Eliminate.flac" WAVE
INDEX 01 00:00:00
TRACK 04 AUDIO
TITLE "Expired"
PERFORMER "Natsuki Tamura Quartet"
REM REPLAYGAIN_TRACK_GAIN -1.58 dB
REM REPLAYGAIN_TRACK_PEAK 0.905792
INDEX 00 26:24:53
FILE "04 - Expired.flac" WAVE
INDEX 01 00:00:00
TRACK 05 AUDIO
TITLE "Exit"
PERFORMER "Natsuki Tamura Quartet"
REM REPLAYGAIN_TRACK_GAIN 10.68 dB
REM REPLAYGAIN_TRACK_PEAK 0.862976
INDEX 00 12:30:30
FILE "05 - Exit.flac" WAVE
INDEX 01 00:00:00
 
Об исполнителе (группе)
 
Состав
Natsuki Tamura - trumpet
Takayuki Kato - guitar
Satoko Fujii - synthesizer
Ryojiro Furusawa - drums
По всем вопросам пишите личное сообщение пользователю M0p94ok.
16:32
202
Нет комментариев. Ваш будет первым!