Вы используете незарегистрированную версию компонента "Вкладки"!

Поиск

(Free Improvisation) Alipio C. Neto Quartet - The Perfume Comes Before The Flower - 2007, FLAC (tracks+.cue) lossless

Треклист:
Alipio C. Neto Quartet - The Perfume Comes Before The Flower
Жанр: Free Improvisation
Страна-производитель диска: Portugal
Год издания диска: 2007
Издатель (лейбл): Clean Feed Records
Номер по каталогу: cf 093
Страна: Portugal
Аудио кодек: FLAC (*.flac)
Тип рипа: tracks+.cue
Битрейт аудио: lossless
Продолжительность: 50:50
Источник (релизер): собственный рип с оригинального диска.
Наличие сканов в содержимом раздачи: да
Треклист:
01. The Perfume Comes Before - Early News 11:21
02. The Will - Nissarana 10:52
03. The Flower - Aboio 14:57
04. The Pure Experience - Sertão 5:09
05. La Réalité - Dancing Cosmologies 8:27
 
Лог создания рипа
Exact Audio Copy V0.99 prebeta 5 from 4. May 2009
EAC extraction logfile from 14. January 2011, 23:29
Alipio C Neto Quartet / The Perfume Comes Before The Flower
Used drive : TSSTcorpCDDVDW SH-S222A Adapter: 1 ID: 0
Read mode : Secure
Utilize accurate stream : Yes
Defeat audio cache : Yes
Make use of C2 pointers : No
Read offset correction : 6
Overread into Lead-In and Lead-Out : No
Fill up missing offset samples with silence : Yes
Delete leading and trailing silent blocks : No
Null samples used in CRC calculations : Yes
Used interface : Installed external ASPI interface
Gap handling : Appended to previous track
Used output format : User Defined Encoder
Selected bitrate : 768 kBit/s
Quality : High
Add ID3 tag : No
Command line compressor : C:\Tool\Compress\FLAC\flac.exe
Additional command line options : -V -8 -T "ARTIST=%a" -T "TITLE=%t" -T "ALBUM=%g" -T "TRACKNUMBER=%n" -T "GENRE=%m" %s
TOC of the extracted CD
Track | Start | Length | Start sector | End sector
---------------------------------------------------------
1 | 0:00.00 | 11:22.35 | 0 | 51184
2 | 11:22.35 | 10:52.39 | 51185 | 100123
3 | 22:14.74 | 14:57.31 | 100124 | 167429
4 | 37:12.30 | 5:09.71 | 167430 | 190675
5 | 42:22.26 | 8:27.63 | 190676 | 228763
Track 1
Filename C:\! RUTRACKER\ru up\Alipio C Neto Quartet - The Perfume Comes Before The Flower (2007) [FLAC]\01 - The Perfume Comes Before Early News.wav
Pre-gap length 0:00:02.00
Peak level 100.0 %
Track quality 100.0 %
Test CRC B94C9BBF
Copy CRC B94C9BBF
Track not present in AccurateRip database
Copy OK
Track 2
Filename C:\! RUTRACKER\ru up\Alipio C Neto Quartet - The Perfume Comes Before The Flower (2007) [FLAC]\02 - The Wil Nissarana.wav
Pre-gap length 0:00:03.00
Peak level 100.0 %
Track quality 99.9 %
Test CRC 2687C587
Copy CRC 2687C587
Track not present in AccurateRip database
Copy OK
Track 3
Filename C:\! RUTRACKER\ru up\Alipio C Neto Quartet - The Perfume Comes Before The Flower (2007) [FLAC]\03 - The Flower Aboio.wav
Pre-gap length 0:00:03.00
Peak level 100.0 %
Track quality 100.0 %
Test CRC 5F7CECD8
Copy CRC 5F7CECD8
Track not present in AccurateRip database
Copy OK
Track 4
Filename C:\! RUTRACKER\ru up\Alipio C Neto Quartet - The Perfume Comes Before The Flower (2007) [FLAC]\04 - The Pure Experience Sertao.wav
Pre-gap length 0:00:03.00
Peak level 100.0 %
Track quality 100.0 %
Test CRC 2B4BB0CA
Copy CRC 2B4BB0CA
Track not present in AccurateRip database
Copy OK
Track 5
Filename C:\! RUTRACKER\ru up\Alipio C Neto Quartet - The Perfume Comes Before The Flower (2007) [FLAC]\05 - La realite Dancing Cosmologies.wav
Pre-gap length 0:00:03.00
Peak level 100.0 %
Track quality 100.0 %
Test CRC 372BC8F8
Copy CRC 372BC8F8
Track not present in AccurateRip database
Copy OK
None of the tracks are present in the AccurateRip database
No errors occurred
End of status report
 
Содержание индексной карты (.CUE)
REM GENRE Jazz
REM DATE 2007
REM DISCID 3B0BEA05
REM COMMENT "ExactAudioCopy v0.99pb5"
PERFORMER "Alipio C Neto Quartet"
TITLE "The Perfume Comes Before The Flower"
FILE "01 - The Perfume Comes Before Early News.wav" WAVE
TRACK 01 AUDIO
TITLE "The Perfume Comes Before Early News"
PERFORMER "Alipio C Neto Quartet"
FLAGS DCP
INDEX 01 00:00:00
TRACK 02 AUDIO
TITLE "The Wil Nissarana"
PERFORMER "Alipio C Neto Quartet"
FLAGS DCP
INDEX 00 11:19:35
FILE "02 - The Wil Nissarana.wav" WAVE
INDEX 01 00:00:00
TRACK 03 AUDIO
TITLE "The Flower Aboio"
PERFORMER "Alipio C Neto Quartet"
FLAGS DCP
INDEX 00 10:49:39
FILE "03 - The Flower Aboio.wav" WAVE
INDEX 01 00:00:00
TRACK 04 AUDIO
TITLE "The Pure Experience Sertao"
PERFORMER "Alipio C Neto Quartet"
FLAGS DCP
INDEX 00 14:54:31
FILE "04 - The Pure Experience Sertao.wav" WAVE
INDEX 01 00:00:00
TRACK 05 AUDIO
TITLE "La realite Dancing Cosmologies"
PERFORMER "Alipio C Neto Quartet"
FLAGS DCP
INDEX 00 05:06:71
FILE "05 - La realite Dancing Cosmologies.wav" WAVE
INDEX 01 00:00:00
Доп. информация:
Recorded at Park West Studios, Brooklyn, NY, June 14th, 2006
 
Об альбоме (сборнике)
Apparently Neto's credo is that "music must always be transcendental", and that's clear from the very first sounds of the record. High tempo drumming introduces very slow sax tones and arco bass, with absolutely frantic trumpet soloing by Robertson, creating a feeling of wide expanses and deep emotional contrasts, and then suddenly all sounds converge into a totally unexpected unisono melody that shifts a few seconds later into Filiano's well-known incredibly precise and adventurous bowing, with an hesitant, yet strong sax solo by Neto, and he is absolutely excellent in his playing: raw yet soft and warm-toned at the same time. Then the sax becomes the frantic voice, while Robertson takes over the slow background on trumpet. It's clever, it's fun, it's ingenious. "The Will - Nasarana" starts with a long bass solo, and when you think it's high time to turn up the volume, the three other musicians start playing a joyful abstract melody, which shifts into free bop of the best kind, with both horn players demonstrating their best skills. And I must say that on many records Robertson goes beyond what I find bearable, but not here : his playing is more accessible than we've heard in many years, and it is truly great. The most beautiful track however is "The Flower - Aboio", which is a slow, minor key, bluesy composition, starting with layers of similar sounds by all musicians, evolving into a tear-drenched, funeral-march-like mood, with all instruments wailing and weeping, incredibly intense, incredibly sad, incredibly beautiful. Bengt Berger's "Bitter Funeral Beer" comes to mind when listening to this song, and that's a great compliment. Stap's inclusion on this track is a stroke of genius, because the dark tones, even when playing in the upper register add an intensity and coloring which moves the song to even greater heights. The fourth track is a structured free jazz work-out where all musicians let loose the tension and go for it, and the last one continues in the same vein, but adding a lightly dancing joy to the music. Again, a great record, because of the great musicianship, but also because of the great balance between compositions and improvization. Get it!
 
Состав
Alípio C. Neto - tenor sax, flute (#3)
Ben Stapp - tuba (#3, #4, #5)
Herb Robertson - trumpet, cornet, flutes (#3)
Ken Filiano - double bass
Michael T. A. Thompson - soundrhythium percussionist
По всем вопросам пишите личное сообщение пользователю M0p94ok.
08:24
154
Нет комментариев. Ваш будет первым!