Вы используете незарегистрированную версию компонента "Вкладки"!

Поиск

(Modern Creative) BassDrumBone - The Line Up - 2006, FLAC (tracks+.cue) lossless

Треклист:
BassDrumBone - The Line Up
Жанр: Modern Creative
Страна-производитель диска: Portugal
Год издания диска: 2006
Издатель (лейбл): Clean Feed Records
Номер по каталогу: cf 065
Страна: Portugal
Аудио кодек: FLAC (*.flac)
Тип рипа: tracks+.cue
Битрейт аудио: lossless
Продолжительность: 59:00
Источник (релизер): собственный рип с оригинального диска.
Наличие сканов в содержимом раздачи: да
Треклист:
1. Insistent (RA)
2.Rainbow (GH)
3. The Line Up (MH)
4. Sisyphus Effect (RA)
5. And Then Some (MH)
6. 6A Cuppa (GH)
7. 1,2,3 (MH)
8. On Solid Ground (RA)
9. Rallier (GH)
 
Лог создания рипа
Exact Audio Copy V0.99 prebeta 5 from 4. May 2009
EAC extraction logfile from 14. January 2011, 8:57
BassDrumBone / The Line Up
Used drive : TSSTcorpCDDVDW SH-S222A Adapter: 1 ID: 0
Read mode : Secure
Utilize accurate stream : Yes
Defeat audio cache : Yes
Make use of C2 pointers : No
Read offset correction : 6
Overread into Lead-In and Lead-Out : No
Fill up missing offset samples with silence : Yes
Delete leading and trailing silent blocks : No
Null samples used in CRC calculations : Yes
Used interface : Installed external ASPI interface
Gap handling : Appended to previous track
Used output format : User Defined Encoder
Selected bitrate : 768 kBit/s
Quality : High
Add ID3 tag : No
Command line compressor : C:\Tool\Compress\FLAC\flac.exe
Additional command line options : -V -8 -T "ARTIST=%a" -T "TITLE=%t" -T "ALBUM=%g" -T "TRACKNUMBER=%n" -T "GENRE=%m" %s
TOC of the extracted CD
Track | Start | Length | Start sector | End sector
---------------------------------------------------------
1 | 0:00.00 | 4:47.01 | 0 | 21525
2 | 4:47.01 | 7:27.56 | 21526 | 55106
3 | 12:14.57 | 6:46.35 | 55107 | 85591
4 | 19:01.17 | 8:33.03 | 85592 | 124069
5 | 27:34.20 | 8:06.60 | 124070 | 160579
6 | 35:41.05 | 6:51.15 | 160580 | 191419
7 | 42:32.20 | 4:40.37 | 191420 | 212456
8 | 47:12.57 | 6:05.03 | 212457 | 239834
9 | 53:17.60 | 5:42.44 | 239835 | 265528
Track 1
Filename C:\! RUTRACKER\ru up\BassDrumBone - The Line Up (2006) [FLAC]\01 - Insistent.wav
Pre-gap length 0:00:02.00
Peak level 99.4 %
Track quality 100.0 %
Test CRC 2B0815FD
Copy CRC 2B0815FD
Accurately ripped (confidence 2) [98D95846]
Copy OK
Track 2
Filename C:\! RUTRACKER\ru up\BassDrumBone - The Line Up (2006) [FLAC]\02 - Rainbow.wav
Pre-gap length 0:00:03.73
Peak level 99.4 %
Track quality 100.0 %
Test CRC C49A7DE7
Copy CRC C49A7DE7
Accurately ripped (confidence 2) [A39790DA]
Copy OK
Track 3
Filename C:\! RUTRACKER\ru up\BassDrumBone - The Line Up (2006) [FLAC]\03 - The Line Up.wav
Pre-gap length 0:00:03.73
Peak level 99.4 %
Track quality 100.0 %
Test CRC 81AE591E
Copy CRC 81AE591E
Accurately ripped (confidence 2) [E775695B]
Copy OK
Track 4
Filename C:\! RUTRACKER\ru up\BassDrumBone - The Line Up (2006) [FLAC]\04 - Sisyphus Effect.wav
Pre-gap length 0:00:05.73
Peak level 99.4 %
Track quality 99.9 %
Test CRC 1ED92FDF
Copy CRC 1ED92FDF
Accurately ripped (confidence 2) [7B8F5F3C]
Copy OK
Track 5
Filename C:\! RUTRACKER\ru up\BassDrumBone - The Line Up (2006) [FLAC]\05 - And Then Some.wav
Pre-gap length 0:00:05.73
Peak level 99.4 %
Track quality 99.9 %
Test CRC 56083AFA
Copy CRC 56083AFA
Accurately ripped (confidence 2) [FC4E726C]
Copy OK
Track 6
Filename C:\! RUTRACKER\ru up\BassDrumBone - The Line Up (2006) [FLAC]\06 - A Cuppa.wav
Pre-gap length 0:00:04.70
Peak level 99.4 %
Track quality 100.0 %
Test CRC 25DD27A0
Copy CRC 25DD27A0
Accurately ripped (confidence 2) [9149A736]
Copy OK
Track 7
Filename C:\! RUTRACKER\ru up\BassDrumBone - The Line Up (2006) [FLAC]\07 - 1, 2, 3.wav
Pre-gap length 0:00:05.72
Peak level 99.4 %
Track quality 100.0 %
Test CRC A00664FD
Copy CRC A00664FD
Accurately ripped (confidence 2) [58809ABB]
Copy OK
Track 8
Filename C:\! RUTRACKER\ru up\BassDrumBone - The Line Up (2006) [FLAC]\08 - On Solid Ground.wav
Pre-gap length 0:00:04.73
Peak level 99.4 %
Track quality 100.0 %
Test CRC 1C9DF48C
Copy CRC 1C9DF48C
Accurately ripped (confidence 2) [62D2496A]
Copy OK
Track 9
Filename C:\! RUTRACKER\ru up\BassDrumBone - The Line Up (2006) [FLAC]\09 - Rallier.wav
Pre-gap length 0:00:05.70
Peak level 99.4 %
Track quality 100.0 %
Test CRC 4CC1875F
Copy CRC 4CC1875F
Accurately ripped (confidence 2) [46E29F3A]
Copy OK
All tracks accurately ripped
No errors occurred
End of status report
 
Содержание индексной карты (.CUE)
REM GENRE Jazz
REM DATE 2006
REM DISCID 810DD409
REM COMMENT "ExactAudioCopy v0.99pb5"
PERFORMER "BassDrumBone"
TITLE "The Line Up"
FILE "01 - Insistent.wav" WAVE
TRACK 01 AUDIO
TITLE "Insistent"
PERFORMER "BassDrumBone"
ISRC USGPH0512901
FLAGS DCP
INDEX 01 00:00:00
TRACK 02 AUDIO
TITLE "Rainbow"
PERFORMER "BassDrumBone"
ISRC USGPH0512902
FLAGS DCP
INDEX 00 04:43:21
FILE "02 - Rainbow.wav" WAVE
INDEX 01 00:00:00
TRACK 03 AUDIO
TITLE "The Line Up"
PERFORMER "BassDrumBone"
ISRC USGPH0512903
FLAGS DCP
INDEX 00 07:24:01
FILE "03 - The Line Up.wav" WAVE
INDEX 01 00:00:00
TRACK 04 AUDIO
TITLE "Sisyphus Effect"
PERFORMER "BassDrumBone"
ISRC USGPH0512904
FLAGS DCP
INDEX 00 06:40:55
FILE "04 - Sisyphus Effect.wav" WAVE
INDEX 01 00:00:00
TRACK 05 AUDIO
TITLE "And Then Some"
PERFORMER "BassDrumBone"
ISRC USGPH0512905
FLAGS DCP
INDEX 00 08:27:23
FILE "05 - And Then Some.wav" WAVE
INDEX 01 00:00:00
TRACK 06 AUDIO
TITLE "A Cuppa"
PERFORMER "BassDrumBone"
ISRC USGPH0512906
FLAGS DCP
INDEX 00 08:02:07
FILE "06 - A Cuppa.wav" WAVE
INDEX 01 00:00:00
TRACK 07 AUDIO
TITLE "1, 2, 3"
PERFORMER "BassDrumBone"
ISRC USGPH0512907
FLAGS DCP
INDEX 00 06:45:36
FILE "07 - 1, 2, 3.wav" WAVE
INDEX 01 00:00:00
TRACK 08 AUDIO
TITLE "On Solid Ground"
PERFORMER "BassDrumBone"
ISRC USGPH0512908
FLAGS DCP
INDEX 00 04:35:57
FILE "08 - On Solid Ground.wav" WAVE
INDEX 01 00:00:00
TRACK 09 AUDIO
TITLE "Rallier"
PERFORMER "BassDrumBone"
ISRC USGPH0512909
FLAGS DCP
INDEX 00 05:59:25
FILE "09 - Rallier.wav" WAVE
INDEX 01 00:00:00
Доп. информация:
Recorded at Acoustic Music, Brookly, NY on April 24, 2005
 
Об альбоме (сборнике)
Going strong for the last quarter century, BassDrumBone is a trio that rarely ceases to amaze. Though they work only occasionally [when time, touring schedules and funds allow for it], their records are never an afterthought or collages of outtakes. "The Line Up" is another example of the collective craftsmanship. Helias is impressive, with plenty of swinging arco moments and crafty bass solos galore. "And Then Some" features some extended bass solos from Helias that stretch the tune out. Anderson is a powerhouse. Rumbling tones, windy farts appearing out of nowhere and those delicious melodies. All of this is wrapped up in the percussive goodness provided by Hemingway. Swinging, deliberately ear-friendly and very rambunctious, his playing only gets better as time goes by. Check out the solid hard-bop swing on "On Solid Ground". This example can be multiplied but what's the point of going through all the numbers, one by one, when the whole album is so damn solid. It helps these guys have such a rich, long musical history, which they can draw inspiration and strength from. This is one gratifying album from start to finish.
 
Состав
Mark Helias - double bass & bass guitar
Gerry Hemingway - drums
Ray Anderson - trombone
По всем вопросам пишите личное сообщение пользователю M0p94ok.
08:25
158
Нет комментариев. Ваш будет первым!