Поиск

(free improvisation) Frisque Concordance - Spellings - 1993, FLAC (tracks+.cue) lossless

Треклист:
Frisque Concordance - Spellings
Жанр: free improvisation
Страна-производитель диска: Germany
Год издания диска: 1993
Издатель (лейбл): Random Acoustics
Номер по каталогу: RA 001
Страна: Germany
Аудио кодек: FLAC (*.flac)
Тип рипа: tracks+.cue
Битрейт аудио: lossless
Продолжительность: 50:53
Источник (релизер): собственный рип с оригинального диска.
Наличие сканов в содержимом раздачи: да
Треклист:
1 Spelling A 6:09
2 Spelling B 8:40
3 Spelling C 9:43
4 Spelling D 10:54
5 Spelling E 14:35
 
Лог создания рипа
Exact Audio Copy V0.99 prebeta 5 from 4. May 2009
EAC extraction logfile from 5. February 2011, 2:05
Frisque Concordance / Spellings
Used drive : TSSTcorpCDDVDW SH-S222A Adapter: 1 ID: 0
Read mode : Secure
Utilize accurate stream : Yes
Defeat audio cache : Yes
Make use of C2 pointers : No
Read offset correction : 6
Overread into Lead-In and Lead-Out : No
Fill up missing offset samples with silence : Yes
Delete leading and trailing silent blocks : No
Null samples used in CRC calculations : Yes
Used interface : Installed external ASPI interface
Gap handling : Appended to previous track
Used output format : User Defined Encoder
Selected bitrate : 768 kBit/s
Quality : High
Add ID3 tag : No
Command line compressor : C:\Tool\Compress\FLAC\flac.exe
Additional command line options : -V -8 -T "ARTIST=%a" -T "TITLE=%t" -T "ALBUM=%g" -T "TRACKNUMBER=%n" -T "GENRE=%m" %s
TOC of the extracted CD
Track | Start | Length | Start sector | End sector
---------------------------------------------------------
1 | 0:00.00 | 6:13.00 | 0 | 27974
2 | 6:13.00 | 8:43.00 | 27975 | 67199
3 | 14:56.00 | 9:47.00 | 67200 | 111224
4 | 24:43.00 | 10:58.00 | 111225 | 160574
5 | 35:41.00 | 14:34.47 | 160575 | 226171
6 | 50:15.47 | 0:37.48 | 226172 | 228994
Track 1
Filename C:\! RUTRACKER\ru up\Frisque Concordance - Spellings (1992) [FLAC]\01 - Spelling A.wav
Pre-gap length 0:00:02.00
Peak level 97.1 %
Track quality 100.0 %
Test CRC B9B36406
Copy CRC B9B36406
Accurately ripped (confidence 1) [EB4311E4]
Copy OK
Track 2
Filename C:\! RUTRACKER\ru up\Frisque Concordance - Spellings (1992) [FLAC]\02 - Spelling B.wav
Pre-gap length 0:00:03.64
Peak level 88.1 %
Track quality 99.9 %
Test CRC 283279C2
Copy CRC 283279C2
Accurately ripped (confidence 1) [54B4558B]
Copy OK
Track 3
Filename C:\! RUTRACKER\ru up\Frisque Concordance - Spellings (1992) [FLAC]\03 - Spelling C.wav
Pre-gap length 0:00:03.10
Peak level 85.5 %
Track quality 100.0 %
Test CRC B7A6CD9C
Copy CRC B7A6CD9C
Accurately ripped (confidence 1) [454D2981]
Copy OK
Track 4
Filename C:\! RUTRACKER\ru up\Frisque Concordance - Spellings (1992) [FLAC]\04 - Spelling D.wav
Pre-gap length 0:00:04.13
Peak level 98.3 %
Track quality 100.0 %
Test CRC D7ECA1BC
Copy CRC D7ECA1BC
Accurately ripped (confidence 1) [996D9283]
Copy OK
Track 5
Filename C:\! RUTRACKER\ru up\Frisque Concordance - Spellings (1992) [FLAC]\05 - Spelling E.wav
Pre-gap length 0:00:04.17
Peak level 88.6 %
Track quality 99.9 %
Test CRC 0FC30C60
Copy CRC 0FC30C60
Accurately ripped (confidence 1) [9E452BBC]
Copy OK
Track 6
Filename C:\! RUTRACKER\ru up\Frisque Concordance - Spellings (1992) [FLAC]\06 - Spelling F.wav
Peak level 81.9 %
Track quality 100.0 %
Test CRC 293FD5DB
Copy CRC 293FD5DB
Accurately ripped (confidence 1) [E55EC737]
Copy OK
All tracks accurately ripped
No errors occurred
End of status report
 
Содержание индексной карты (.CUE)
REM GENRE "Free Jazz"
REM DATE 1993
REM DISCID 510BED06
REM COMMENT "ExactAudioCopy v0.99pb5"
PERFORMER "Frisque Concordance"
TITLE "Spellings"
FILE "01 - Spelling A.wav" WAVE
TRACK 01 AUDIO
TITLE "Spelling A"
PERFORMER "Frisque Concordance"
INDEX 01 00:00:00
TRACK 02 AUDIO
TITLE "Spelling B"
PERFORMER "Frisque Concordance"
INDEX 00 06:09:27
FILE "02 - Spelling B.wav" WAVE
INDEX 01 00:00:00
TRACK 03 AUDIO
TITLE "Spelling C"
PERFORMER "Frisque Concordance"
INDEX 00 08:39:67
FILE "03 - Spelling C.wav" WAVE
INDEX 01 00:00:00
TRACK 04 AUDIO
TITLE "Spelling D"
PERFORMER "Frisque Concordance"
INDEX 00 09:42:65
FILE "04 - Spelling D.wav" WAVE
INDEX 01 00:00:00
TRACK 05 AUDIO
TITLE "Spelling E"
PERFORMER "Frisque Concordance"
INDEX 00 10:53:62
FILE "05 - Spelling E.wav" WAVE
INDEX 01 00:00:00
FILE "06 - Spelling F.wav" WAVE
TRACK 06 AUDIO
TITLE "Spelling F"
PERFORMER "Frisque Concordance"
INDEX 01 00:00:00
Доп. информация:
Recorded: 4 October 1992 live at Museum Bochum, Germany
 
Об альбоме (сборнике)
Frisque Concordance is the name for a very particular grouping of improvisers under the direction of Georg Graewe. This 1992 show is their second gig in as many years, and all of its improvisations come under the heading of Spellings. The lineup is Graewe on piano, Martin Blume on drums, John Butcher on saxophones, and Hans Schneider on bass. This set typifies a Graewe-led ensemble: slow, appropriately microtonal, and hauntingly strident in its use of empty intervals (fourths, ninths, etc.) in order to draw out his collaborators. Butcher adds his squeaks, sparingly at first, and then reaching for parity with Schneider, who is playing arco before pizzicato in pianississimo! How does this effect Blume? He stutters around creeping with his hands and brushes, whispering along a set pattern of accents before deferring to Graewe who uncorks things a bit and moves the dynamic tension up a notch, then tow before bringing it all back down. About midway through the third track, called "C" appropriately, everyone is playing at once in a low-level striated dance, whispering around the spherical harmonic juxtapositions and contrapuntal figures being laid down by Graewe and Butcher. On "D" Graewe quotes first Herbie Nichols (out of cadence) and then George Shearing and then Lennie Tristano before reworking them all to fit a D minor base for exploration, with only Blume nuttering about with his brushes on the toms and hit hat. It's a gorgeous beginning that inspires everybody else as they enter with pause and great economy of phrase before continuing the dialogue. Spellings was a very auspicious concert; we're lucky to have a recording of it.
 
Состав
Georg Gräwe - piano
Martin Blume - drums
John Butcher - tenor & soprano saxophone
Hans Schneider - double bass
По всем вопросам пишите личное сообщение пользователю M0p94ok.
08:24
152
Нет комментариев. Ваш будет первым!