Поиск

(Flamenco, Contemporary Jazz) Jorge Pardo & Agustin Carbonell ''El Bola'' - Desvarios - 2008, FLAC (tracks+.cue), lossless

(Flamenco, Contemporary Jazz) Jorge Pardo & Agustin Carbonell ''El Bola'' - Desvarios - 2008, FLAC (tracks+.cue), lossless
Jorge Pardo & Agustin Carbonell ''El Bola'' / Desvarios Жанр: Flamenco, Contemporary Jazz
Год издания диска: 2008
Издатель (лейбл): Karonte
Аудиокодек: FLAC (*.flac)
Тип рипа: tracks+.cue
Битрейт аудио: lossless
Продолжительность: 51:36
Источник (релизер): jlgt
Наличие сканов в содержимом раздачи: да
Треклист:
1. Manos Al Aire (5 X 4)2:35
2. 5000 Anos (Arabe)2:55
3. El Faro (Rumba Songo)5:20
4. Insomnio (Buleria)6:21
5. Pani/H2O (Tango)4:02
6. Albatintin (Rumba Samba)4:20
7. La Guitarra De Mi Abuelo (Seguiriya)4:41
8. Desvarios Orbitales (Solo Flauta4:45
9. Tangos Del Rastro (A Mi Madre)3:44
10. Que Movida (Tanguillos)4:18
11. Vacios (Granaina)3:31
12. La Zambra Mora De Rafael (Zambra)5:00
Совместный проект саксофониста Jorge Pardo, здесь в основном играющего на флейте, и фламенко-гитариста Agustin Carbonell ‘El Bola’, впервые представленный на испанском телевидении в 2007-м году.
 
Лог создания рипа
Exact Audio Copy V0.99 prebeta 5 from 4. May 2009
EAC extraction logfile from 23. July 2010, 21:24
Jorge Pardo & Agustin Carbonell ''El Bola'' / Desvarios
Used drive : HL-DT-STDVD-ROM GDR8164B Adapter: 0 ID: 1
Read mode : Secure
Utilize accurate stream : Yes
Defeat audio cache : Yes
Make use of C2 pointers : No
Read offset correction : 102
Overread into Lead-In and Lead-Out : No
Fill up missing offset samples with silence : Yes
Delete leading and trailing silent blocks : No
Null samples used in CRC calculations : Yes
Used interface : Native Win32 interface for Win NT & 2000
Gap handling : Appended to previous track
Used output format : User Defined Encoder
Selected bitrate : 768 kBit/s
Quality : High
Add ID3 tag : No
Command line compressor : C:\Archivos de programa\Exact Audio Copy\Flac\flac.exe
Additional command line options : -8 -V -T "ARTIST=%a" -T "TITLE=%t" -T "ALBUM=%g" -T "DATE=%y" -T "TRACKNUMBER=%n" -T "TOTALTRACKS=%x" -T "GENRE=%m" -T "ALBUM ARTIST=%v" -T "ALBUMARTIST=%v" -T "COMMENT=EAC V0.99 prebeta 5, Secure Mode, Test & Copy, Accurat
TOC of the extracted CD
Track | Start | Length | Start sector | End sector
---------------------------------------------------------
1 | 0:00.00 | 2:35.31 | 0 | 11655
2 | 2:35.31 | 2:54.74 | 11656 | 24779
3 | 5:30.30 | 5:20.45 | 24780 | 48824
4 | 10:51.00 | 6:20.74 | 48825 | 77398
5 | 17:11.74 | 4:02.58 | 77399 | 95606
6 | 21:14.57 | 4:20.28 | 95607 | 115134
7 | 25:35.10 | 4:41.45 | 115135 | 136254
8 | 30:16.55 | 4:45.53 | 136255 | 157682
9 | 35:02.33 | 3:44.26 | 157683 | 174508
10 | 38:46.59 | 4:18.03 | 174509 | 193861
11 | 43:04.62 | 3:31.26 | 193862 | 209712
12 | 46:36.13 | 5:00.00 | 209713 | 232212
Track 1
Filename E:\EAC_RIP_FLAC\01 - Manos Al Aire.wav
Pre-gap length 0:00:02.00
Peak level 96.6 %
Track quality 99.9 %
Test CRC 034492BF
Copy CRC 034492BF
Track not present in AccurateRip database
Copy OK
Track 2
Filename E:\EAC_RIP_FLAC\02 - 50000 Anos.wav
Pre-gap length 0:00:02.00
Peak level 96.6 %
Track quality 99.9 %
Test CRC 164AD6BD
Copy CRC 164AD6BD
Track not present in AccurateRip database
Copy OK
Track 3
Filename E:\EAC_RIP_FLAC\03 - El Faro.wav
Pre-gap length 0:00:02.00
Peak level 96.6 %
Track quality 100.0 %
Test CRC 39908B3F
Copy CRC 39908B3F
Track not present in AccurateRip database
Copy OK
Track 4
Filename E:\EAC_RIP_FLAC\04 - Insomnio.wav
Pre-gap length 0:00:02.00
Peak level 96.6 %
Track quality 100.0 %
Test CRC F1CFE90F
Copy CRC F1CFE90F
Track not present in AccurateRip database
Copy OK
Track 5
Filename E:\EAC_RIP_FLAC\05 - Pani_H2O.wav
Pre-gap length 0:00:02.00
Peak level 96.6 %
Track quality 100.0 %
Test CRC 9A733F60
Copy CRC 9A733F60
Track not present in AccurateRip database
Copy OK
Track 6
Filename E:\EAC_RIP_FLAC\06 - Albatintin.wav
Pre-gap length 0:00:02.00
Peak level 96.6 %
Track quality 100.0 %
Test CRC 62A64A2C
Copy CRC 62A64A2C
Track not present in AccurateRip database
Copy OK
Track 7
Filename E:\EAC_RIP_FLAC\07 - La Guitarra de Mi Abuelo.wav
Pre-gap length 0:00:02.00
Peak level 96.6 %
Track quality 99.9 %
Test CRC 11BBB06B
Copy CRC 11BBB06B
Track not present in AccurateRip database
Copy OK
Track 8
Filename E:\EAC_RIP_FLAC\08 - Desvarios Orbitales.wav
Pre-gap length 0:00:02.00
Peak level 96.6 %
Track quality 100.0 %
Test CRC CF3F88B4
Copy CRC CF3F88B4
Track not present in AccurateRip database
Copy OK
Track 9
Filename E:\EAC_RIP_FLAC\09 - Tangos del Rastro.wav
Pre-gap length 0:00:02.00
Peak level 96.6 %
Track quality 100.0 %
Test CRC 8A06A8E5
Copy CRC 8A06A8E5
Track not present in AccurateRip database
Copy OK
Track 10
Filename E:\EAC_RIP_FLAC\10 - Que Movida.wav
Pre-gap length 0:00:01.98
Peak level 96.6 %
Track quality 100.0 %
Test CRC 69839138
Copy CRC 69839138
Track not present in AccurateRip database
Copy OK
Track 11
Filename E:\EAC_RIP_FLAC\11 - Vacios.wav
Pre-gap length 0:00:02.00
Peak level 96.6 %
Track quality 100.0 %
Test CRC 2C0DF0FF
Copy CRC 2C0DF0FF
Track not present in AccurateRip database
Copy OK
Track 12
Filename E:\EAC_RIP_FLAC\12 - La Zambra Mora de Rafael.wav
Pre-gap length 0:00:02.00
Peak level 96.6 %
Track quality 100.0 %
Test CRC 293ECB32
Copy CRC 293ECB32
Track not present in AccurateRip database
Copy OK
None of the tracks are present in the AccurateRip database
No errors occurred
End of status report
 
Содержание индексной карты (.CUE)
REM GENRE Flamenco
REM DATE 2008
REM DISCID A30C180C
REM COMMENT "ExactAudioCopy v0.99pb5"
PERFORMER "Jorge Pardo & Agustin Carbonell ''El Bola''"
TITLE "Desvarios"
FILE "01 - Manos Al Aire.wav" WAVE
TRACK 01 AUDIO
TITLE "Manos Al Aire"
PERFORMER "Jorge Pardo & Agustin Carbonell ''El Bola''"
INDEX 01 00:00:00
TRACK 02 AUDIO
TITLE "50000 Anos"
PERFORMER "Jorge Pardo & Agustin Carbonell ''El Bola''"
INDEX 00 02:33:31
FILE "02 - 50000 Anos.wav" WAVE
INDEX 01 00:00:00
TRACK 03 AUDIO
TITLE "El Faro"
PERFORMER "Jorge Pardo & Agustin Carbonell ''El Bola''"
INDEX 00 02:52:74
FILE "03 - El Faro.wav" WAVE
INDEX 01 00:00:00
TRACK 04 AUDIO
TITLE "Insomnio"
PERFORMER "Jorge Pardo & Agustin Carbonell ''El Bola''"
INDEX 00 05:18:45
FILE "04 - Insomnio.wav" WAVE
INDEX 01 00:00:00
TRACK 05 AUDIO
TITLE "Pani_H2O"
PERFORMER "Jorge Pardo & Agustin Carbonell ''El Bola''"
INDEX 00 06:18:74
FILE "05 - Pani_H2O.wav" WAVE
INDEX 01 00:00:00
TRACK 06 AUDIO
TITLE "Albatintin"
PERFORMER "Jorge Pardo & Agustin Carbonell ''El Bola''"
INDEX 00 04:00:58
FILE "06 - Albatintin.wav" WAVE
INDEX 01 00:00:00
TRACK 07 AUDIO
TITLE "La Guitarra de Mi Abuelo"
PERFORMER "Jorge Pardo & Agustin Carbonell ''El Bola''"
INDEX 00 04:18:28
FILE "07 - La Guitarra de Mi Abuelo.wav" WAVE
INDEX 01 00:00:00
TRACK 08 AUDIO
TITLE "Desvarios Orbitales"
PERFORMER "Jorge Pardo & Agustin Carbonell ''El Bola''"
INDEX 00 04:39:45
FILE "08 - Desvarios Orbitales.wav" WAVE
INDEX 01 00:00:00
TRACK 09 AUDIO
TITLE "Tangos del Rastro"
PERFORMER "Jorge Pardo & Agustin Carbonell ''El Bola''"
INDEX 00 04:43:53
FILE "09 - Tangos del Rastro.wav" WAVE
INDEX 01 00:00:00
TRACK 10 AUDIO
TITLE "Que Movida"
PERFORMER "Jorge Pardo & Agustin Carbonell ''El Bola''"
INDEX 00 03:42:27
FILE "10 - Que Movida.wav" WAVE
INDEX 01 00:00:00
TRACK 11 AUDIO
TITLE "Vacios"
PERFORMER "Jorge Pardo & Agustin Carbonell ''El Bola''"
INDEX 00 04:16:03
FILE "11 - Vacios.wav" WAVE
INDEX 01 00:00:00
TRACK 12 AUDIO
TITLE "La Zambra Mora de Rafael"
PERFORMER "Jorge Pardo & Agustin Carbonell ''El Bola''"
INDEX 00 03:29:26
FILE "12 - La Zambra Mora de Rafael.wav" WAVE
INDEX 01 00:00:00
 
Лог проверки качества
AUDIOCHECKER v2.0 beta (build 457) - by Dester - opdester@freemail.hu
~~~~~~~~~~~~~~~~~~~~~~~~~~~~~~~~~~
-=== DO NOT EDIT THIS FILE! ===-
Path: ...\Jorge Pardo & Agustin Carbonell ''El Bola'' - Desvarios (2008) [FLAC]
01 -=- 01 - Manos Al Aire.flac -=- CDDA (100%)
02 -=- 02 - 50000 Anos.flac -=- CDDA (100%)
03 -=- 03 - El Faro.flac -=- CDDA (100%)
04 -=- 04 - Insomnio.flac -=- CDDA (100%)
05 -=- 05 - Pani_H2O.flac -=- MPEG (95%)
06 -=- 06 - Albatintin.flac -=- CDDA (100%)
07 -=- 07 - La Guitarra de Mi Abuelo.flac -=- CDDA (99%)
08 -=- 08 - Desvarios Orbitales.flac -=- CDDA (100%)
09 -=- 09 - Tangos del Rastro.flac -=- CDDA (100%)
10 -=- 10 - Que Movida.flac -=- CDDA (100%)
11 -=- 11 - Vacios.flac -=- CDDA (99%)
12 -=- 12 - La Zambra Mora de Rafael.flac -=- CDDA (100%)
Summary 91,92% CDDA
136501028
 
Об альбоме (сборнике)
Flamenco lays its stakes on collaboration projects. Saxophonist Jorge Pardo and guitarist Agustin Carbonell ‘El Bola’ have united not just their instruments but also what flamenco and jazz have in common on the album ‘Desvarios’. The recording, assigned by the label RTVE Musica for its collection ‘Jazz en Espaсa’, was done in March 2007 at the studios of Televisiуn Espaсola. Piano, contrabass, violin, percussion, clapping and cante accompany the two soloists.
 
Состав
Jorge Pardo: saxo, flauta.
Agustín Carbonell 'El Bola': guitarra, percusión.
Enrique Bermudez "El Piculabe": voz.
Sergio Ceballos: piano.
José Gregorio Lovera: violín.
Juan Miguel Guzmán: bajo.
Приятных впечатлений!
01:04
321
Нет комментариев. Ваш будет первым!