Поиск

(Brazilian Jazz, Bossa Nova, Vocal Jazz, World Fusion) Bïa (Bia Krieger) - Coeur Vagabond - 2006, APE (tracks+.cue), lossless

(Brazilian Jazz, Bossa Nova, Vocal Jazz, World Fusion) Bïa (Bia Krieger) - Coeur Vagabond - 2006, APE (tracks+.cue), lossless
Bïa / Cœur Vagabond
Жанр: Brazilian Jazz, Bossa Nova, Vocal Jazz, World Fusion
Страна-производитель диска: EU
Год издания диска: 2006
Издатель (лейбл): Sony-BMG/Robsound
Номер по каталогу: 828768-02162
Страна: Brasil/France/Canada
Аудиокодек: APE (*.ape)
Тип рипа: tracks+.cue
Битрейт аудио: lossless
Продолжительность: 49:37
Источник (релизер): avax
Наличие сканов в содержимом раздачи: да
Треклист:
01 - Cœur Vagabond
02 - Ilha do mel
03 - Tão Sentimental
04 - Portrait en Noir et Blanc
05 - Água na Boca
06 - Comme une Vague
07 - À la Fontaine
08 - Appel
09 - Como eu Sonhei
10 - Amour Secret
11 - Estrela do Mar
12 - L’Échelle de la Douleur
13 - Jardim
14 - Bilingue
15 - bonus: A Má Reputação
 
Лог создания рипа
Exact Audio Copy V1.0 beta 1 from 15. November 2010
EAC extraction logfile from 19. October 2011, 21:08
Bia / Cœur Vagabond {SONY-BMG
Used drive : ASUS DRW-1608P3S Adapter: 0 ID: 1
Read mode : Secure
Utilize accurate stream : Yes
Defeat audio cache : Yes
Make use of C2 pointers : No
Read offset correction : 48
Overread into Lead-In and Lead-Out : No
Fill up missing offset samples with silence : Yes
Delete leading and trailing silent blocks : No
Null samples used in CRC calculations : Yes
Used interface : Native Win32 interface for Win NT & 2000
Gap handling : Appended to previous track
Used output format : Internal WAV Routines
Sample format : 44.100 Hz; 16 Bit; Stereo
TOC of the extracted CD
Track | Start | Length | Start sector | End sector
---------------------------------------------------------
1 | 0:00.00 | 3:52.34 | 0 | 17433
2 | 3:52.34 | 3:01.60 | 17434 | 31068
3 | 6:54.19 | 3:16.06 | 31069 | 45774
4 | 10:10.25 | 4:26.67 | 45775 | 65791
5 | 14:37.17 | 2:44.22 | 65792 | 78113
6 | 17:21.39 | 3:32.53 | 78114 | 94066
7 | 20:54.17 | 3:48.66 | 94067 | 111232
8 | 24:43.08 | 3:12.69 | 111233 | 125701
9 | 27:56.02 | 3:39.47 | 125702 | 142173
10 | 31:35.49 | 2:57.33 | 142174 | 155481
11 | 34:33.07 | 4:09.18 | 155482 | 174174
12 | 38:42.25 | 3:01.56 | 174175 | 187805
13 | 41:44.06 | 2:26.39 | 187806 | 198794
14 | 44:10.45 | 2:54.08 | 198795 | 211852
15 | 47:04.53 | 2:32.28 | 211853 | 223280
Track 1
Filename H:\EAC@Oceandrop Rips\Bia - Coeur Vagabond {SONY-BMG}\01 - Cœur Vagabond.wav
Pre-gap length 0:00:02.00
Peak level 100.0 %
Extraction speed 3.9 X
Track quality 99.9 %
Test CRC FB2B8AF9
Copy CRC FB2B8AF9
Accurately ripped (confidence 6) [2878B7B6]
Copy OK
Track 2
Filename H:\EAC@Oceandrop Rips\Bia - Coeur Vagabond {SONY-BMG}\02 - Ilha do Mel.wav
Pre-gap length 0:00:01.58
Peak level 100.0 %
Extraction speed 4.6 X
Track quality 100.0 %
Test CRC CD315712
Copy CRC CD315712
Accurately ripped (confidence 6) [B4089471]
Copy OK
Track 3
Filename H:\EAC@Oceandrop Rips\Bia - Coeur Vagabond {SONY-BMG}\03 - Tao Sentimental.wav
Pre-gap length 0:00:01.36
Peak level 100.0 %
Extraction speed 5.0 X
Track quality 100.0 %
Test CRC CC9904BD
Copy CRC CC9904BD
Accurately ripped (confidence 7) [15A50C0A]
Copy OK
Track 4
Filename H:\EAC@Oceandrop Rips\Bia - Coeur Vagabond {SONY-BMG}\04 - Portrait en Noir et Blanc.wav
Pre-gap length 0:00:01.31
Peak level 100.0 %
Extraction speed 5.5 X
Track quality 100.0 %
Test CRC C9A7F5A8
Copy CRC C9A7F5A8
Accurately ripped (confidence 6) [258A9DC0]
Copy OK
Track 5
Filename H:\EAC@Oceandrop Rips\Bia - Coeur Vagabond {SONY-BMG}\05 - Agua na Boca.wav
Peak level 100.0 %
Extraction speed 5.5 X
Track quality 100.0 %
Test CRC 6FB61857
Copy CRC 6FB61857
Accurately ripped (confidence 6) [110417D3]
Copy OK
Track 6
Filename H:\EAC@Oceandrop Rips\Bia - Coeur Vagabond {SONY-BMG}\06 - Comme Une Vague.wav
Pre-gap length 0:00:00.51
Peak level 100.0 %
Extraction speed 6.0 X
Track quality 100.0 %
Test CRC E9FEE7BE
Copy CRC E9FEE7BE
Accurately ripped (confidence 6) [80D34753]
Copy OK
Track 7
Filename H:\EAC@Oceandrop Rips\Bia - Coeur Vagabond {SONY-BMG}\07 - A la Fontaine.wav
Pre-gap length 0:00:01.25
Peak level 100.0 %
Extraction speed 6.4 X
Track quality 100.0 %
Test CRC 0DC0E25A
Copy CRC 0DC0E25A
Accurately ripped (confidence 6) [AD2E3A40]
Copy OK
Track 8
Filename H:\EAC@Oceandrop Rips\Bia - Coeur Vagabond {SONY-BMG}\08 - Appel.wav
Pre-gap length 0:00:02.03
Peak level 100.0 %
Extraction speed 5.5 X
Track quality 99.9 %
Test CRC 673C0515
Copy CRC 673C0515
Accurately ripped (confidence 6) [17E4D489]
Copy OK
Track 9
Filename H:\EAC@Oceandrop Rips\Bia - Coeur Vagabond {SONY-BMG}\09 - Como eu Sonhei.wav
Peak level 100.0 %
Extraction speed 6.8 X
Track quality 100.0 %
Test CRC C3375A6D
Copy CRC C3375A6D
Accurately ripped (confidence 6) [2FCC6664]
Copy OK
Track 10
Filename H:\EAC@Oceandrop Rips\Bia - Coeur Vagabond {SONY-BMG}\10 - Amour Secret.wav
Pre-gap length 0:00:01.58
Peak level 100.0 %
Extraction speed 6.7 X
Track quality 100.0 %
Test CRC BDD3B430
Copy CRC BDD3B430
Accurately ripped (confidence 6) [AF63036F]
Copy OK
Track 11
Filename H:\EAC@Oceandrop Rips\Bia - Coeur Vagabond {SONY-BMG}\11 - Estrela do Mar.wav
Peak level 100.0 %
Extraction speed 7.4 X
Track quality 100.0 %
Test CRC AB5B884C
Copy CRC AB5B884C
Accurately ripped (confidence 6) [0E08BA4B]
Copy OK
Track 12
Filename H:\EAC@Oceandrop Rips\Bia - Coeur Vagabond {SONY-BMG}\12 - L'Echelle de la Douleur.wav
Pre-gap length 0:00:02.46
Peak level 94.0 %
Extraction speed 7.2 X
Track quality 100.0 %
Test CRC 2494EBD2
Copy CRC 2494EBD2
Accurately ripped (confidence 6) [955095CB]
Copy OK
Track 13
Filename H:\EAC@Oceandrop Rips\Bia - Coeur Vagabond {SONY-BMG}\13 - Jardim.wav
Pre-gap length 0:00:01.58
Peak level 100.0 %
Extraction speed 7.1 X
Track quality 100.0 %
Test CRC D883CE68
Copy CRC D883CE68
Accurately ripped (confidence 6) [D5778624]
Copy OK
Track 14
Filename H:\EAC@Oceandrop Rips\Bia - Coeur Vagabond {SONY-BMG}\14 - Bilingue.wav
Pre-gap length 0:00:01.34
Peak level 100.0 %
Extraction speed 7.5 X
Track quality 100.0 %
Test CRC 0F87C4D8
Copy CRC 0F87C4D8
Accurately ripped (confidence 6) [F287C913]
Copy OK
Track 15
Filename H:\EAC@Oceandrop Rips\Bia - Coeur Vagabond {SONY-BMG}\15 - A ma Reputaçao (bonus track).wav
Pre-gap length 0:00:09.58
Peak level 100.0 %
Extraction speed 7.3 X
Track quality 100.0 %
Test CRC B431221E
Copy CRC B431221E
Accurately ripped (confidence 6) [DDA8EB16]
Copy OK
All tracks accurately ripped
No errors occurred
End of status report
==== Log checksum 775A4C5E6901FDCFF1E82B29D45A281E251B2B778E4662E31CA81EFB6F2E06C0 ====
 
Содержание индексной карты (.CUE)
REM GENRE Latin
REM DATE 2006
REM DISCID D50BA10F
REM COMMENT "ExactAudioCopy v1.0b1"
PERFORMER "Bia"
TITLE "Coeur Vagabond"
FILE "01 - Coeur Vagabond.wav" WAVE
TRACK 01 AUDIO
TITLE "Coeur Vagabond"
PERFORMER "Bia"
INDEX 01 00:00:00
TRACK 02 AUDIO
TITLE "Ilha do Mel"
PERFORMER "Bia"
INDEX 00 03:50:51
FILE "02 - Ilha do Mel.wav" WAVE
INDEX 01 00:00:00
TRACK 03 AUDIO
TITLE "Tao Sentimental"
PERFORMER "Bia"
INDEX 00 03:00:24
FILE "03 - Tao Sentimental.wav" WAVE
INDEX 01 00:00:00
TRACK 04 AUDIO
TITLE "Portrait en Noir et Blanc"
PERFORMER "Bia"
INDEX 00 03:14:50
FILE "04 - Portrait en Noir et Blanc.wav" WAVE
INDEX 01 00:00:00
FILE "05 - Agua na Boca.wav" WAVE
TRACK 05 AUDIO
TITLE "Agua na Boca"
PERFORMER "Bia"
INDEX 01 00:00:00
TRACK 06 AUDIO
TITLE "Comme Une Vague"
PERFORMER "Bia"
INDEX 00 02:43:46
FILE "06 - Comme Une Vague.wav" WAVE
INDEX 01 00:00:00
TRACK 07 AUDIO
TITLE "A la Fontaine"
PERFORMER "Bia"
INDEX 00 03:31:28
FILE "07 - A la Fontaine.wav" WAVE
INDEX 01 00:00:00
TRACK 08 AUDIO
TITLE "Appel"
PERFORMER "Bia"
INDEX 00 03:46:63
FILE "08 - Appel.wav" WAVE
INDEX 01 00:00:00
FILE "09 - Como eu Sonhei.wav" WAVE
TRACK 09 AUDIO
TITLE "Como eu Sonhei"
PERFORMER "Bia"
INDEX 01 00:00:00
TRACK 10 AUDIO
TITLE "Amour Secret"
PERFORMER "Bia"
INDEX 00 03:37:64
FILE "10 - Amour Secret.wav" WAVE
INDEX 01 00:00:00
FILE "11 - Estrela do Mar.wav" WAVE
TRACK 11 AUDIO
TITLE "Estrela do Mar"
PERFORMER "Bia"
INDEX 01 00:00:00
TRACK 12 AUDIO
TITLE "L'Echelle de la Douleur"
PERFORMER "Bia"
INDEX 00 04:06:47
FILE "12 - L'Echelle de la Douleur.wav" WAVE
INDEX 01 00:00:00
TRACK 13 AUDIO
TITLE "Jardim"
PERFORMER "Bia"
INDEX 00 02:59:73
FILE "13 - Jardim.wav" WAVE
INDEX 01 00:00:00
TRACK 14 AUDIO
TITLE "Bilingue"
PERFORMER "Bia"
INDEX 00 02:25:05
FILE "14 - Bilingue.wav" WAVE
INDEX 01 00:00:00
TRACK 15 AUDIO
TITLE "A ma Reputacao (bonus track)"
PERFORMER "Bia"
INDEX 00 02:44:25
FILE "15 - A ma Reputacao (bonus track).wav" WAVE
INDEX 01 00:00:00
 
Лог проверки качества
AUDIOCHECKER v2.0 beta (build 457) - by Dester - opdester@freemail.hu
~~~~~~~~~~~~~~~~~~~~~~~~~~~~~~~~~~
-=== DO NOT EDIT THIS FILE! ===-
Path: ...\Bia - Coeur Vagabond 2006
01 -=- 01 - Coeur Vagabond.ape -=- CDDA (100%)
02 -=- 02 - Ilha do Mel.ape -=- MPEG (95%)
03 -=- 03 - Tao Sentimental.ape -=- CDDA (100%)
04 -=- 04 - Portrait en Noir et Blanc.ape -=- CDDA (100%)
05 -=- 05 - Agua na Boca.ape -=- CDDA (100%)
06 -=- 06 - Comme Une Vague.ape -=- CDDA (100%)
07 -=- 07 - A la Fontaine.ape -=- CDDA (100%)
08 -=- 08 - Appel.ape -=- CDDA (100%)
09 -=- 09 - Como eu Sonhei.ape -=- CDDA (100%)
10 -=- 10 - Amour Secret.ape -=- CDDA (100%)
11 -=- 11 - Estrela do Mar.ape -=- CDDA (100%)
12 -=- 12 - L'Echelle de la Douleur.ape -=- CDDA (99%)
13 -=- 13 - Jardim.ape -=- CDDA (100%)
14 -=- 14 - Bilingue.ape -=- CDDA (100%)
15 -=- 15 - A ma Reputacao (bonus track).ape -=- CDDA (100%)
Summary 93,60% CDDA
96152132
01:03
254
Нет комментариев. Ваш будет первым!