Поиск

(Brazilian Jazz, Piano Jazz) Gisbranco - Flor de Abril {Delira Musica DL 557, Brazil} - 2011, FLAC (tracks+.cue) lossless

Треклист:
Gisbranco - Flor de Abril
Жанр: Brazilian Jazz, Piano Jazz
Страна-производитель диска: Brazil
Год издания диска: 2011
Издатель (лейбл): Delira Musica
Номер по каталогу: DL 557
Аудио кодек: FLAC (*.flac)
Тип рипа: tracks+.cue
Битрейт аудио: lossless
Продолжительность: 00:49:39
Источник (релизер): GatoMedio
Наличие сканов в содержимом раздачи: да
Repertório:
01. Dança n. 4 (Miudinho) - Bachianas nº 4 (Heitor Villa-Lobos)
02. Festa no Carmo (Bianca Gismonti)
03. Deixa (Baden Powell / Vinicius de Moraes)
04. Serra do Céu (Claudia Castelo Branco/ Marcos Campello)
05. Riscado (Claudia Castelo Branco)
06. Ponteio (Edu Lobo / Capinam)
07. Flor de Abril (Claudia Castelo Branco)
08. Entre Amigos (Bianca Gismonti)
09. Sabiá e Beija-flor (Bianca Gismonti)
10. Capivara (Hermeto Pascoal)
11. Por causa de um ingresso do festival matou roqueira de quinze anos (Chico César)
Recorded, mixed and mastered in studios Visom - Rio de Janeiro, between March and June 2011.
Personnel:
The Players:
Bianca Gismonti - piano and voice
Claudia Castelo Branco - piano and voice
Guests:
Carlos Malta - flauta e pife
Robertinho Silva - percussão
Chico César - violão e voz
 
Лог создания рипа (EAC Log)
Exact Audio Copy V0.99 prebeta 5 from 4. May 2009
EAC extraction logfile from 12. October 2011, 2:24
gisbranco / flor de abril
Used drive : HL-DT-STDVD-RAM GSA-H55N Adapter: 0 ID: 0
Read mode : Secure
Utilize accurate stream : Yes
Defeat audio cache : Yes
Make use of C2 pointers : No
Read offset correction : 102
Overread into Lead-In and Lead-Out : No
Fill up missing offset samples with silence : Yes
Delete leading and trailing silent blocks : No
Null samples used in CRC calculations : Yes
Used interface : Native Win32 interface for Win NT & 2000
Gap handling : Appended to previous track
Used output format : Internal WAV Routines
Sample format : 44.100 Hz; 16 Bit; Stereo
TOC of the extracted CD
Track | Start | Length | Start sector | End sector
---------------------------------------------------------
1 | 0:00.00 | 4:08.68 | 0 | 18667
2 | 4:08.68 | 5:02.51 | 18668 | 41368
3 | 9:11.44 | 2:59.68 | 41369 | 54861
4 | 12:11.37 | 4:49.20 | 54862 | 76556
5 | 17:00.57 | 4:59.13 | 76557 | 98994
6 | 21:59.70 | 5:07.13 | 98995 | 122032
7 | 27:07.08 | 4:34.10 | 122033 | 142592
8 | 31:41.18 | 4:10.18 | 142593 | 161360
9 | 35:51.36 | 6:55.39 | 161361 | 192524
10 | 42:47.00 | 3:35.73 | 192525 | 208722
11 | 46:22.73 | 3:16.21 | 208723 | 223443
Track 1
Filename D:\_Music myUploads\gisbranco - flor de abril (2011)\gisbranco - flor de abril (wav)\01 - Dan.a nє 4 (Miudinho).wav
Pre-gap length 0:00:02.00
Peak level 98.6 %
Track quality 99.9 %
Copy CRC A81485E0
Track not present in AccurateRip database
Copy OK
Track 2
Filename D:\_Music myUploads\gisbranco - flor de abril (2011)\gisbranco - flor de abril (wav)\02 - Festa no Carmo.wav
Pre-gap length 0:00:00.36
Peak level 98.6 %
Track quality 100.0 %
Copy CRC C0B52CEC
Track not present in AccurateRip database
Copy OK
Track 3
Filename D:\_Music myUploads\gisbranco - flor de abril (2011)\gisbranco - flor de abril (wav)\03 - Deixa.wav
Pre-gap length 0:00:02.15
Peak level 98.6 %
Track quality 100.0 %
Copy CRC DC160D19
Track not present in AccurateRip database
Copy OK
Track 4
Filename D:\_Music myUploads\gisbranco - flor de abril (2011)\gisbranco - flor de abril (wav)\04 - Serra do cйu.wav
Pre-gap length 0:00:02.42
Peak level 98.6 %
Track quality 100.0 %
Copy CRC 6100E1F8
Track not present in AccurateRip database
Copy OK
Track 5
Filename D:\_Music myUploads\gisbranco - flor de abril (2011)\gisbranco - flor de abril (wav)\05 - Riscado.wav
Pre-gap length 0:00:03.27
Peak level 98.5 %
Track quality 99.9 %
Copy CRC 5AFDBEE8
Track not present in AccurateRip database
Copy OK
Track 6
Filename D:\_Music myUploads\gisbranco - flor de abril (2011)\gisbranco - flor de abril (wav)\06 - Ponteio.wav
Pre-gap length 0:00:04.01
Peak level 98.6 %
Track quality 99.9 %
Copy CRC 48B7B0A9
Track not present in AccurateRip database
Copy OK
Track 7
Filename D:\_Music myUploads\gisbranco - flor de abril (2011)\gisbranco - flor de abril (wav)\07 - Flor de abril.wav
Pre-gap length 0:00:02.52
Peak level 98.6 %
Track quality 100.0 %
Copy CRC A510C6DE
Track not present in AccurateRip database
Copy OK
Track 8
Filename D:\_Music myUploads\gisbranco - flor de abril (2011)\gisbranco - flor de abril (wav)\08 - Entre amigos.wav
Pre-gap length 0:00:02.01
Peak level 99.0 %
Track quality 100.0 %
Copy CRC 48DA9B8A
Track not present in AccurateRip database
Copy OK
Track 9
Filename D:\_Music myUploads\gisbranco - flor de abril (2011)\gisbranco - flor de abril (wav)\09 - Sabiб e beija-flor.wav
Pre-gap length 0:00:02.58
Peak level 98.6 %
Track quality 100.0 %
Copy CRC BCBE2191
Track not present in AccurateRip database
Copy OK
Track 10
Filename D:\_Music myUploads\gisbranco - flor de abril (2011)\gisbranco - flor de abril (wav)\10 - Capivara.wav
Pre-gap length 0:00:02.73
Peak level 100.0 %
Track quality 100.0 %
Copy CRC E822A314
Track not present in AccurateRip database
Copy OK
Track 11
Filename D:\_Music myUploads\gisbranco - flor de abril (2011)\gisbranco - flor de abril (wav)\11 - Por causa de um ingresso do festival matou roquira de quinze anos.wav
Pre-gap length 0:00:04.61
Peak level 98.6 %
Track quality 100.0 %
Copy CRC 20563305
Track not present in AccurateRip database
Copy OK
None of the tracks are present in the AccurateRip database
No errors occurred
End of status report
 
Содержание индексной карты (.CUE)
REM GENRE Brazilian
REM DATE 2011
REM DISCID 840BA30B
REM COMMENT "ExactAudioCopy v0.99pb5"
PERFORMER "gisbranco"
TITLE "flor de abril"
FILE "01 - Danca n. 4 (Miudinho).wav" WAVE
TRACK 01 AUDIO
TITLE "Danca n. 4 (Miudinho)"
PERFORMER "gisbranco"
ISRC BRLOP1100066
INDEX 01 00:00:00
TRACK 02 AUDIO
TITLE "Festa no Carmo"
PERFORMER "gisbranco"
ISRC BRLOP1100067
INDEX 00 04:08:32
FILE "02 - Festa no Carmo.wav" WAVE
INDEX 01 00:00:00
TRACK 03 AUDIO
TITLE "Deixa"
PERFORMER "gisbranco"
ISRC BRLOP1100068
INDEX 00 05:00:36
FILE "03 - Deixa.wav" WAVE
INDEX 01 00:00:00
TRACK 04 AUDIO
TITLE "Serra do ceu"
PERFORMER "gisbranco"
ISRC BRLOP1100069
INDEX 00 02:57:26
FILE "04 - Serra do ceu.wav" WAVE
INDEX 01 00:00:00
TRACK 05 AUDIO
TITLE "Riscado"
PERFORMER "gisbranco"
ISRC BRLOP1100070
INDEX 00 04:45:68
FILE "05 - Riscado.wav" WAVE
INDEX 01 00:00:00
TRACK 06 AUDIO
TITLE "Ponteio"
PERFORMER "gisbranco"
ISRC BRLOP1100071
INDEX 00 04:55:12
FILE "06 - Ponteio.wav" WAVE
INDEX 01 00:00:00
TRACK 07 AUDIO
TITLE "Flor de abril"
PERFORMER "gisbranco"
ISRC BRLOP1100072
INDEX 00 05:04:36
FILE "07 - Flor de abril.wav" WAVE
INDEX 01 00:00:00
TRACK 08 AUDIO
TITLE "Entre amigos"
PERFORMER "gisbranco"
ISRC BRLOP1100073
INDEX 00 04:32:09
FILE "08 - Entre amigos.wav" WAVE
INDEX 01 00:00:00
TRACK 09 AUDIO
TITLE "Sabia e beija-flor"
PERFORMER "gisbranco"
ISRC BRLOP1100074
INDEX 00 04:07:35
FILE "09 - Sabia e beija-flor.wav" WAVE
INDEX 01 00:00:00
TRACK 10 AUDIO
TITLE "Capivara"
PERFORMER "gisbranco"
ISRC BRLOP1100075
INDEX 00 06:52:41
FILE "10 - Capivara.wav" WAVE
INDEX 01 00:00:00
TRACK 11 AUDIO
TITLE "Por causa de um ingresso do festival matou roquira de quinze anos"
PERFORMER "gisbranco"
ISRC BRLOP1100076
INDEX 00 03:31:12
FILE "11 - Por causa de um ingresso do festival matou roquira de quinze anos.wav" WAVE
INDEX 01 00:00:00
 
Gisbranco (Photo)
 
Об исполнителях
Gisbranco, the piano duo formed by Bianca Gismonti and Claudia Castelo Branco, have released their second CD, entitled Flor de Abril.
---
Bianca Gismonti and Claudia Castelo Branco
Gisbranco The Duo consists of two pianists who brings his career in a rare musical affinity. With a unique repertoire for two pianos Bianca Gismonti and Claudia Castelo Branco develop an innovative work, exploring the most of the sound of the instrument, resulting in a unique language and personal. The repertoire of songs Moacir Santos, Chico Cesar, Egberto Gismonti, Hermeto Pascoal, Villa-Lobos, Ernesto Nazareth, Edu Lobo, among others.
Claudia Bianca and integrate the new generation of artists who renew the Brazilian music scene with creativity and good taste. It is worth checking!
 
Об альбоме
Gisbranco novo CD Flor de Abril
O duo formado pelas pianistas Bianca Gismonti e Claudia Castelo Branco foi a sensação do MIDEM (Cannes/França), principal feira internacional do mercado fonográfico em janeiro último. Seu segundo disco de carreira, Flor de Abril, sai simultaneamente no Brasil, França e EUA com turnê européia em Outubro passando por Amsterdam, Paris, Istambul e Zurich. Virtuosismo ao piano e construção de arranjos inspirados, já era uma marca do Gisbranco. Em “Flor de Abril”, Bianca e Claudia apresentam verve e talento para a composição e para o canto.
O disco traz 6 composições próprias com destaque para “Sabiá e Beija-Flor”, letra e música de Bianca Gismonti, e “Serra do Céu”, música de Claudia Castelo Branco e letra de Marcos Campello. Nesses temas Bianca e Claudia mostram que além de exímias pianistas e arranjadoras, são donas de vozes belas e afinadas. Completam o repertório temas de Chico César, Egberto Gismonti, Hermeto Pascoal, Edu Lobo, Baden Powell e Villa-Lobos. O disco tem as participações de Chico César (voz e violões na faixa de sua autoria), Carlos Malta (flauta e pife na Dança n. 4 de Heitor Villa-Lobos), e Robertinho Silva (percussão no tema Serra do Céu).
ENGLISH:
New CD: Gisbranco - Flower in April
The duo pianists by Bianca Gismonti and Claudia Castelo Branco was a sensation on MIDEM (Cannes / France), the premier international music market last January. His second album career blossom in April, will be output in Brazil, France and USA with European tour in October through Amsterdam, Paris, Istanbul and Zurich. Virtuosity on the piano and building arrangements inspired, it was a mark of Gisbranco. In "Flower in April," Bianca and Claudia have verve and talent for composition and into the corner.
The album features six original compositions with an emphasis on "Sabia and Beija-Flor," music and lyrics by Bianca Gismonti, and "Mountain of Heaven," Claudia Castelo Branco music and lyrics by Mark Campello. These issues and Claudia Bianca shows that besides accomplished pianist and arranger, own voices and beautiful tune. Rounding out the repertoire of themes Chico Cesar, Egberto Gismonti, Hermeto Pascoal, Edu Lobo, Baden Powell, Villa-Lobos. The album has the participation of Chico César (voice and guitar in the band of his own), Carlos Malta (flute and Pife in Dance No 4 by Heitor Villa-Lobos), and Robby Smith (percussion on the theme of the Sierra Sky).
----
In "April Blossom" (Delira Music), Gisbranco second disc, the duo pianists by Bianca Gismonti and Claudia White Castle opens new artistic phase starting his international career.
Virtuosity on the piano and arrangements were already inspired by the brand of Gisbranco. On the album "Flower of April," and Claudia Bianca still bring verve and talent for composition and into the corner.The album features six copyright works, especially "Sabia and Beija-Flor," music and lyrics by Bianca Gismonti, and "Mountain of Heaven," Claudia Castelo Branco music and lyrics by Mark Campello. Claudia Bianca and show that in addition to virtuoso pianist and arranger, own voices and beautiful tune. The complete repertoire of songs from CD Chico Cesar, Egberto Gismonti, Hermeto Pascoal, Edu Lobo, Baden Powell, Villa-Lobos. Some of this repertoire was featured in the presentation of Gisbranco January/2011 largest trade fair in the music industry, the MIDEM (Cannes / France). The album also included collaborations with Chico César (voice and guitar in the band of his own), Carlos Malta (flute and Pife in Dance No. 4 by Heitor Villa-Lobos), and Robby Smith (percussion on the theme of the Sierra Sky).
After the shows launch in Brazil, part of the duo for their first international tour that will pass through Amsterdam, Paris, Istanbul and Zurich in October/2011.
With a unique repertoire for two pianos, the Gisbranco develops innovative work, exploring the most of the sound of the instrument, resulting in a unique language and personal. Bianca Gismonti and Claudia Castelo Branco integrate the new
generation of artists who renew the Brazilian music scene with creativity and good taste.
This release is sponsored by Pharma Chemicals and the Secretariat of State for Culture, through the State Law of Cultural Incentive of Rio de Janeiro.
Source: deliramusica.com
 
Technical
Arrangements and piano: Gisbranco (Bianca Gismonti and Claudia Castelo Branco)
Recorded, mixed and mastered in studios Visom - Rio de Janeiro, between March and June 2011.
Musical direction and production - Gisbranco
Music production studio - Marcos Campello
Preparation vocal - Doriana Mendes
Audio Engineer - Fabio Guimaraes
Technical supervision - Carlos de Andrade
Coordination of studios - Fernando Acar
Assistant recording and mixing - Bruno "Sal" cattle
Mixing Gisbranco - Marcos Campello, Fabio Guimaraes, Carlos Renato de Andrade and Godoy
Mastering - Fabio Guimaraes
Technical supervision of pianos Yamaha CF-IIIS and Steinway D - Guthenberg Pereira
Support - Gut Pianos
Graphic design and illustration - Cristina Portella
Photos - Tomás Rangel
Scenery and costume production - Karla Peh
Hair - Beth Faust
Makeup - Francis Emanuel Milk
Cover dresses lent by John Pepper
Photos in the studio Visom - Sonia Mibielli
General Coordination - Luciana Pegorer
... Отличные девушки! ... + ... Отличная музыка! ... = ... Отличный альбом! ...
01:05
316
Нет комментариев. Ваш будет первым!