Вы используете незарегистрированную версию компонента "Вкладки"!

Поиск

(Experimental, Jazz, Spoken Word) [CD] Charles Spearin - The Happiness Project - 2009, FLAC (tracks+.cue), lossless

(Experimental, Jazz, Spoken Word) [CD] Charles Spearin - The Happiness Project - 2009, FLAC (tracks+.cue), lossless
Треклист:
Charles Spearin. The Happiness Project. 2009
Участник. Do Make Say Think / Broken Social Scene / K.C. Accidental
Born. Toronto / ON / Canada

Аудио. FLAC (*flac). tracks+cue. lossless. CD
Жанр. Experimental. Jazz. Spoken Word
Label. Arts & Crafts. A&C039. Canada
Сканов в раздаче. нет
Источник. whatcd

01. Mrs. Morris (1:26)
02. Anna (2:50)
03. Vittoria (3:14)
04. Vanessa (7:51)
05. Marisa (3:58)
06. Ondine (2:30)
07. Mr. Gowrie (7:04)
08. Mrs. Morris (Reprise) (2:56)
 
time. 00:31:52
 
log
Exact Audio Copy V0.99 prebeta 4 from 23. January 2008
EAC extraction logfile from 28. May 2009, 12:43
Charles Spearin / s Project
Used drive : HL-DT-STRW/DVD GCC-4243N Adapter: 1 ID: 0
Read mode : Secure
Utilize accurate stream : Yes
Defeat audio cache : Yes
Make use of C2 pointers : No
Read offset correction : 102
Overread into Lead-In and Lead-Out : No
Fill up missing offset samples with silence : Yes
Delete leading and trailing silent blocks : No
Null samples used in CRC calculations : Yes
Used interface : Native Win32 interface for Win NT & 2000
Gap handling : Appended to previous track
Used output format : User Defined Encoder
Selected bitrate : 128 kBit/s
Quality : High
Add ID3 tag : No
Command line compressor : C:\Program Files\Exact Audio Copy\FLAC\FLAC.EXE
Additional command line options : -V -8 -T "artist=%a" -T "title=%t" -T "album=%g" -T "date=%y" -T "tracknumber=%n" -T "genre=%m" %s
TOC of the extracted CD
Track | Start | Length | Start sector | End sector
---------------------------------------------------------
1 | 0:00.00 | 1:26.61 | 0 | 6510
2 | 1:26.61 | 2:50.47 | 6511 | 19307
3 | 4:17.33 | 3:14.11 | 19308 | 33868
4 | 7:31.44 | 7:51.40 | 33869 | 69233
5 | 15:23.09 | 3:58.27 | 69234 | 87110
6 | 19:21.36 | 2:30.19 | 87111 | 98379
7 | 21:51.55 | 7:04.37 | 98380 | 130216
8 | 28:56.17 | 2:56.45 | 130217 | 143461
Track 1
Filename C:\EAC Rips\Charles Spearin - - s Project\01 - Mrs.Morris.wav
Pre-gap length 0:00:02.00
Peak level 55.8 %
Track quality 100.0 %
Test CRC B4AADFC3
Copy CRC B4AADFC3
Track not present in AccurateRip database
Copy OK
Track 2
Filename C:\EAC Rips\Charles Spearin - - s Project\02 - Anna.wav
Peak level 83.5 %
Track quality 100.0 %
Test CRC C3A7590E
Copy CRC C3A7590E
Track not present in AccurateRip database
Copy OK
Track 3
Filename C:\EAC Rips\Charles Spearin - - s Project\03 - Vittoria.wav
Peak level 84.7 %
Track quality 100.0 %
Test CRC 9E975668
Copy CRC 9E975668
Track not present in AccurateRip database
Copy OK
Track 4
Filename C:\EAC Rips\Charles Spearin - - s Project\04 - Vanessa.wav
Peak level 81.3 %
Track quality 99.9 %
Test CRC 26E02487
Copy CRC 26E02487
Track not present in AccurateRip database
Copy OK
Track 5
Filename C:\EAC Rips\Charles Spearin - - s Project\05 - Marisa.wav
Peak level 83.6 %
Track quality 100.0 %
Test CRC 254CC917
Copy CRC 254CC917
Track not present in AccurateRip database
Copy OK
Track 6
Filename C:\EAC Rips\Charles Spearin - - s Project\06 - Ondine.wav
Peak level 81.9 %
Track quality 100.0 %
Test CRC DB5D0E14
Copy CRC DB5D0E14
Track not present in AccurateRip database
Copy OK
Track 7
Filename C:\EAC Rips\Charles Spearin - - s Project\07 - Mr. Gowrie.wav
Peak level 84.1 %
Track quality 100.0 %
Test CRC E198B60E
Copy CRC E198B60E
Track not present in AccurateRip database
Copy OK
Track 8
Filename C:\EAC Rips\Charles Spearin - - s Project\08 - Mrs. Morris (Reprise).wav
Peak level 83.5 %
Track quality 100.0 %
Test CRC 94641D05
Copy CRC 94641D05
Track not present in AccurateRip database
Copy OK
None of the tracks are present in the AccurateRip database
No errors occurred
End of status report
 
cue
REM DISCID 64077808
REM COMMENT "ExactAudioCopy v0.99pb4"
FILE "01 - Mrs.Morris.wav" WAVE
TRACK 01 AUDIO
INDEX 01 00:00:00
FILE "02 - Anna.wav" WAVE
TRACK 02 AUDIO
INDEX 01 00:00:00
FILE "03 - Vittoria.wav" WAVE
TRACK 03 AUDIO
INDEX 01 00:00:00
FILE "04 - Vanessa.wav" WAVE
TRACK 04 AUDIO
INDEX 01 00:00:00
FILE "05 - Marisa.wav" WAVE
TRACK 05 AUDIO
INDEX 01 00:00:00
FILE "06 - Ondine.wav" WAVE
TRACK 06 AUDIO
INDEX 01 00:00:00
FILE "07 - Mr. Gowrie.wav" WAVE
TRACK 07 AUDIO
INDEX 01 00:00:00
FILE "08 - Mrs. Morris (Reprise).wav" WAVE
TRACK 08 AUDIO
INDEX 01 00:00:00
 
Об альбоме
Из одной рецензии с RYMточкаКОМ (автор Tille)
  • Вот меня уже спросили личным сообщением, в чем прелесть этого альбома. Ну вот чем он так хорош? Чего "5" баллов-то? И правда, чего это я - сел переслушивать. Захотелось поставить "6".
    Когда сильно впечатливший "необычный" альбом с прошествием какого-то времени нравится только больше - это замечательно, знаете ли. Значит, суть его, действительно, не в "шок-эффекте" (ну надо же, Спирин-Спэрин нашел человеческую речь музыкальной), а в том, что это попросту хорошо. Это именно что Happiness Project.
    Препарируя человеческую речь и подкрашивая ее краской музыки, он находит не нечто "новое", результат исследовательской работы, а просто - счастье. Тот самый поток жизни, который постоянно нас окружает и который мы зачастую не можем заметить. Музыкальные ходы не слишком оригинальны (Спэрин, варьируя найденную в речевых модуляциях тему, уезжает в канонический джаз, заигрывая одновременно с той музыкой, которую он с товарищаи делал в Do Make Say Think и Broken Social Scene), сама идея уже разрабатывалась Стивом Райшем (его фамилия, оказывается, так пишется, о как), а полчаса этой записи не становятся менее прекрасны от сознания этих фактов.
    Плясать хочется!

женственные раздачи
мужественные раздачи
По всем вопросам пишите личное сообщение пользователю M0p94ok.
05:16
182
Нет комментариев. Ваш будет первым!