Вы используете незарегистрированную версию компонента "Вкладки"!

Поиск

(Avant-Garde, Free Jazz) [CD] Yosuke Yamashita New York Trio (Cecil McBee, Pheeroan akLaff with Joe Lovano) - Dazzling Days {Verve 521 303-2, Germany} - 1993, FLAC (image+.cue), lossless

(Avant-Garde, Free Jazz) [CD] Yosuke Yamashita New York Trio (Cecil McBee, Pheeroan akLaff with Joe Lovano) - Dazzling Days {Verve 521 303-2, Germany} - 1993, FLAC (image+.cue), lossless
Треклист:
Yosuke Yamashita New York Trio with Joe Lovano / Dazzling Days
Жанр: Avant-Garde, Free Jazz
Носитель: CD
Страна-производитель диска: Germany
Год издания: 1993
Издатель (лейбл): Verve
Номер по каталогу: 521 303-2
Аудиокодек: FLAC (*.flac)
Тип рипа: image+.cue
Битрейт аудио: lossless
Продолжительность: 00:50:57
Источник (релизер): narasq
Наличие сканов в содержимом раздачи: да
Треклист:
1. Parallel Run
2. My Grandfather's Clock
3. Promenade
4. Dazzling Cradle
5. Kurdish Winds
6. Jong's Jump
7. Four Notes Flight
8. Lullaby in Color
Recorded on May 18, 19 & 20, 1993 at Sound on Sound Recording, New York City
Personnel:
Yosuke Yamashita - Piano, Producer
Cecil McBee - Bass
Pheeroan akLaff - Drums
Joe Lovano - Tenor sax (on 4, 5 & 7)
 
Лог создания рипа (EAC Log)
Exact Audio Copy V0.99 prebeta 5 from 4. May 2009
EAC extraction logfile from 9. September 2009, 2:52
Yosuke Yamashita / Dazzling Days
Used drive : Optiarc DVD RW AD-7543A Adapter: 2 ID: 0
Read mode : Secure
Utilize accurate stream : Yes
Defeat audio cache : Yes
Make use of C2 pointers : No
Read offset correction : 48
Overread into Lead-In and Lead-Out : No
Fill up missing offset samples with silence : Yes
Delete leading and trailing silent blocks : No
Null samples used in CRC calculations : Yes
Used interface : Native Win32 interface for Win NT & 2000
Used output format : Internal WAV Routines
Sample format : 44.100 Hz; 16 Bit; Stereo
TOC of the extracted CD
Track | Start | Length | Start sector | End sector
---------------------------------------------------------
1 | 0:00.00 | 5:47.50 | 0 | 26074
2 | 5:47.50 | 7:04.12 | 26075 | 57886
3 | 12:51.62 | 4:21.63 | 57887 | 77524
4 | 17:13.50 | 9:05.00 | 77525 | 118399
5 | 26:18.50 | 6:26.50 | 118400 | 147399
6 | 32:45.25 | 4:58.00 | 147400 | 169749
7 | 37:43.25 | 8:15.50 | 169750 | 206924
8 | 45:59.00 | 4:58.12 | 206925 | 229286
Range status and errors
Selected range
Filename Z:\home\igo\eac\CDImage.wav
Peak level 99.2 %
Range quality 100.0 %
Copy CRC 8F82990D
Copy OK
No errors occurred
AccurateRip summary
Track 1 accurately ripped (confidence 2) [15F56739]
Track 2 accurately ripped (confidence 2) [B530F604]
Track 3 accurately ripped (confidence 2) [27D62AE6]
Track 4 accurately ripped (confidence 2) [04DAD110]
Track 5 accurately ripped (confidence 2) [81739E31]
Track 6 accurately ripped (confidence 2) [338F3AEB]
Track 7 accurately ripped (confidence 2) [F5CB2F8D]
Track 8 accurately ripped (confidence 2) [4B788E79]
All tracks accurately ripped
End of status report
 
Содержание индексной карты (.CUE)
REM DISCID 700BF108
REM COMMENT "ExactAudioCopy v0.99pb5"
PERFORMER "Yosuke Yamashita"
TITLE "Dazzling Days"
FILE "CDImage.flac" WAVE
TRACK 01 AUDIO
TITLE "Parallel Run"
PERFORMER "Yosuke Yamashita"
INDEX 01 00:00:00
TRACK 02 AUDIO
TITLE "My Grandfather's Clock"
PERFORMER "Yosuke Yamashita"
INDEX 00 05:46:47
INDEX 01 05:47:50
TRACK 03 AUDIO
TITLE "Promenade"
PERFORMER "Yosuke Yamashita"
INDEX 00 12:50:00
INDEX 01 12:51:62
TRACK 04 AUDIO
TITLE "Dazzling Cradle"
PERFORMER "Yosuke Yamashita"
INDEX 00 17:12:05
INDEX 01 17:13:50
TRACK 05 AUDIO
TITLE "Kurdish Winds"
PERFORMER "Yosuke Yamashita"
INDEX 00 26:18:02
INDEX 01 26:18:50
TRACK 06 AUDIO
TITLE "Jong's Jump"
PERFORMER "Yosuke Yamashita"
INDEX 01 32:45:25
TRACK 07 AUDIO
TITLE "Four Notes Flight"
PERFORMER "Yosuke Yamashita"
INDEX 00 37:42:65
INDEX 01 37:43:25
TRACK 08 AUDIO
TITLE "Lullaby In Color"
PERFORMER "Yosuke Yamashita"
INDEX 00 45:58:05
INDEX 01 45:59:00
По всем вопросам пишите личное сообщение пользователю M0p94ok.
05:16
314
Нет комментариев. Ваш будет первым!