Вы используете незарегистрированную версию компонента "Вкладки"!

Поиск

(Avant-Garde Jazz / Free Improvisation) [CD] Peter Brötzmann (Brotzmann) & Sonny Sharrock - Whatthefuckdoyouwant - 2014, rec. 1987, FLAC (tracks+.cue), lossless

(Avant-Garde Jazz / Free Improvisation) [CD] Peter Brötzmann (Brotzmann) & Sonny Sharrock - Whatthefuckdoyouwant - 2014, rec. 1987, FLAC (tracks+.cue), lossless
Треклист:
Peter Brötzmann & Sonny Sharrock - Whatthefuckdoyouwant
Жанр: Avant-Garde Jazz / Free Improvisation
Носитель: CD
Страна-производитель диска: Austria
Год издания: 2014
Год записи: 1987
Издатель (лейбл): Trost Records
Номер по каталогу: TR 124
Аудиокодек: FLAC (*.flac)
Тип рипа: tracks+.cue
Битрейт аудио: lossless
Продолжительность: 01:11:58
Источник (релизер): what.cd / спасибо 6060842
Наличие сканов в содержимом раздачи: да
Треклист:
1. 01 (03:29)
2. 02 (08:34)
3. 03 (08:12)
4. 04 (08:11)
5. 05 (05:47)
6. 06 (06:28)
7. 07 (04:41)
8. 08 (06:12)
9. 09 (09:44)
10. 10 (06:04)
11. 11 (04:40)
All music by Brötzmann / Sharrock
Доп. информация:
Musicians:
Peter Brötzmann - alto saxophone, bass saxophone, tenor saxophone, tárogató
Sonny Sharrock - electric guitar
Recorded: 09/03/1987, Jam, Kulturfabrik in Esch, Alzette, Luxemburg
Peter Brotzmann & Sonny Sharrock - Whatthefuckdoyouwant allaboutjazz.com
Peter Brotzmann & Sonny Sharrock - Whatthefuckdoyouwant discogs.com
Peter Brötzmann Official Site
Peter Brötzmann from Wikipedia, the free encyclopedia
Sonny Sharrock Official Site
Sonny Sharrock from Wikipedia, the free encyclopedia
 
... photo ...

 
Лог создания рипа
X Lossless Decoder version 20140504 (147.0)
XLD extraction logfile from 2014-09-13 02:04:53 +0400
Peter Brötzmann, Sonny Sharrock / Whatthefuckdoyouwant
Used drive : ASUS SDRW-08D2S-U (revision A611)
Media type : Pressed CD
Ripper mode : XLD Secure Ripper
Disable audio cache : OK for the drive with a cache less than 1375KiB
Make use of C2 pointers : NO
Read offset correction : 6
Max retry count : 100
Gap status : Analyzed, Appended (except HTOA)
TOC of the extracted CD
Track | Start | Length | Start sector | End sector
---------------------------------------------------------
1 | 00:00:00 | 03:31:35 | 0 | 15859
2 | 03:31:35 | 08:36:09 | 15860 | 54568
3 | 12:07:44 | 08:13:71 | 54569 | 91614
4 | 20:21:40 | 08:13:21 | 91615 | 128610
5 | 28:34:61 | 05:49:18 | 128611 | 154803
6 | 34:24:04 | 06:30:15 | 154804 | 184068
7 | 40:54:19 | 04:43:39 | 184069 | 205332
8 | 45:37:58 | 06:13:58 | 205333 | 233365
9 | 51:51:41 | 09:46:16 | 233366 | 277331
10 | 61:37:57 | 06:06:16 | 277332 | 304797
11 | 67:43:73 | 04:39:52 | 304798 | 325774
AccurateRip Summary
Disc not found in AccurateRip DB.
All Tracks
Album gain : -8.69 dB
Peak : 0.988678
Statistics
Read error : 0
Jitter error (maybe fixed) : 0
Retry sector count : 0
Damaged sector count : 0
Track 01
Filename : /Users/Shared/Grabbed/Peter Brotzmann, Sonny Sharrock - 2014 - Whatthefuckdoyouwant [FLAC]/01 - Whatthefuckdoyouwant 1.flac
Pre-gap length : 00:02:00
Track gain : -7.05 dB
Peak : 0.988647
CRC32 hash (test run) : AF107EB0
CRC32 hash : AF107EB0
CRC32 hash (skip zero) : E96802A4
AccurateRip v1 signature : C29DD599
AccurateRip v2 signature : 117DEA81
->Track not present in AccurateRip database.
Statistics
Read error : 0
Jitter error (maybe fixed) : 0
Retry sector count : 0
Damaged sector count : 0
Track 02
Filename : /Users/Shared/Grabbed/Peter Brotzmann, Sonny Sharrock - 2014 - Whatthefuckdoyouwant [FLAC]/02 - Whatthefuckdoyouwant 2.flac
Pre-gap length : 00:02:06
Track gain : -8.32 dB
Peak : 0.988678
CRC32 hash (test run) : D73BFEA2
CRC32 hash : D73BFEA2
CRC32 hash (skip zero) : 328F4A41
AccurateRip v1 signature : 28797DD1
AccurateRip v2 signature : DF1AA8F8
->Track not present in AccurateRip database.
Statistics
Read error : 0
Jitter error (maybe fixed) : 0
Retry sector count : 0
Damaged sector count : 0
Track 03
Filename : /Users/Shared/Grabbed/Peter Brotzmann, Sonny Sharrock - 2014 - Whatthefuckdoyouwant [FLAC]/03 - Whatthefuckdoyouwant 3.flac
Pre-gap length : 00:02:36
Track gain : -9.09 dB
Peak : 0.988647
CRC32 hash (test run) : A504CFC9
CRC32 hash : A504CFC9
CRC32 hash (skip zero) : 4955EC4C
AccurateRip v1 signature : A4EAED81
AccurateRip v2 signature : E087DCD2
->Track not present in AccurateRip database.
Statistics
Read error : 0
Jitter error (maybe fixed) : 0
Retry sector count : 0
Damaged sector count : 0
Track 04
Filename : /Users/Shared/Grabbed/Peter Brotzmann, Sonny Sharrock - 2014 - Whatthefuckdoyouwant [FLAC]/04 - Whatthefuckdoyouwant 4.flac
Pre-gap length : 00:02:66
Track gain : -8.60 dB
Peak : 0.988678
CRC32 hash (test run) : 8CC1F77B
CRC32 hash : 8CC1F77B
CRC32 hash (skip zero) : BC3AC177
AccurateRip v1 signature : 2B16A779
AccurateRip v2 signature : 20FEB465
->Track not present in AccurateRip database.
Statistics
Read error : 0
Jitter error (maybe fixed) : 0
Retry sector count : 0
Damaged sector count : 0
Track 05
Filename : /Users/Shared/Grabbed/Peter Brotzmann, Sonny Sharrock - 2014 - Whatthefuckdoyouwant [FLAC]/05 - Whatthefuckdoyouwant 5.flac
Pre-gap length : 00:02:52
Track gain : -9.24 dB
Peak : 0.988647
CRC32 hash (test run) : 8982275C
CRC32 hash : 8982275C
CRC32 hash (skip zero) : B63DF165
AccurateRip v1 signature : 76F08EA7
AccurateRip v2 signature : 211AA3D2
->Track not present in AccurateRip database.
Statistics
Read error : 0
Jitter error (maybe fixed) : 0
Retry sector count : 0
Damaged sector count : 0
Track 06
Filename : /Users/Shared/Grabbed/Peter Brotzmann, Sonny Sharrock - 2014 - Whatthefuckdoyouwant [FLAC]/06 - Whatthefuckdoyouwant 6.flac
Pre-gap length : 00:02:34
Track gain : -8.65 dB
Peak : 0.988647
CRC32 hash (test run) : 1DA8E725
CRC32 hash : 1DA8E725
CRC32 hash (skip zero) : B30DEFCB
AccurateRip v1 signature : 8E5873E6
AccurateRip v2 signature : 90646CBB
->Track not present in AccurateRip database.
Statistics
Read error : 0
Jitter error (maybe fixed) : 0
Retry sector count : 0
Damaged sector count : 0
Track 07
Filename : /Users/Shared/Grabbed/Peter Brotzmann, Sonny Sharrock - 2014 - Whatthefuckdoyouwant [FLAC]/07 - Whatthefuckdoyouwant 7.flac
Pre-gap length : 00:02:61
Track gain : -8.77 dB
Peak : 0.988678
CRC32 hash (test run) : 39D5F2FD
CRC32 hash : 39D5F2FD
CRC32 hash (skip zero) : 7B6E6656
AccurateRip v1 signature : F0D8267A
AccurateRip v2 signature : 0D7A9EB6
->Track not present in AccurateRip database.
Statistics
Read error : 0
Jitter error (maybe fixed) : 0
Retry sector count : 0
Damaged sector count : 0
Track 08
Filename : /Users/Shared/Grabbed/Peter Brotzmann, Sonny Sharrock - 2014 - Whatthefuckdoyouwant [FLAC]/08 - Whatthefuckdoyouwant 8.flac
Pre-gap length : 00:02:39
Track gain : -8.47 dB
Peak : 0.988617
CRC32 hash (test run) : 951B4EDF
CRC32 hash : 951B4EDF
CRC32 hash (skip zero) : 9F9F2BCE
AccurateRip v1 signature : C3C8A617
AccurateRip v2 signature : 6370A844
->Track not present in AccurateRip database.
Statistics
Read error : 0
Jitter error (maybe fixed) : 0
Retry sector count : 0
Damaged sector count : 0
Track 09
Filename : /Users/Shared/Grabbed/Peter Brotzmann, Sonny Sharrock - 2014 - Whatthefuckdoyouwant [FLAC]/09 - Whatthefuckdoyouwant 9.flac
Pre-gap length : 00:01:70
Track gain : -8.97 dB
Peak : 0.988647
CRC32 hash (test run) : 599D6D1F
CRC32 hash : 599D6D1F
CRC32 hash (skip zero) : F6716648
AccurateRip v1 signature : ECE26EBC
AccurateRip v2 signature : 079B93BA
->Track not present in AccurateRip database.
Statistics
Read error : 0
Jitter error (maybe fixed) : 0
Retry sector count : 0
Damaged sector count : 0
Track 10
Filename : /Users/Shared/Grabbed/Peter Brotzmann, Sonny Sharrock - 2014 - Whatthefuckdoyouwant [FLAC]/10 - Whatthefuckdoyouwant 10.flac
Pre-gap length : 00:02:54
Track gain : -8.53 dB
Peak : 0.988647
CRC32 hash (test run) : 35753AD6
CRC32 hash : 35753AD6
CRC32 hash (skip zero) : 9B5BBAF9
AccurateRip v1 signature : 59D7CE46
AccurateRip v2 signature : 3A23E83B
->Track not present in AccurateRip database.
Statistics
Read error : 0
Jitter error (maybe fixed) : 0
Retry sector count : 0
Damaged sector count : 0
Track 11
Filename : /Users/Shared/Grabbed/Peter Brotzmann, Sonny Sharrock - 2014 - Whatthefuckdoyouwant [FLAC]/11 - Whatthefuckdoyouwant 11.flac
Pre-gap length : 00:02:29
Track gain : -7.25 dB
Peak : 0.988617
CRC32 hash (test run) : 719C38A4
CRC32 hash : 719C38A4
CRC32 hash (skip zero) : 399529F6
AccurateRip v1 signature : 808CAE2B
AccurateRip v2 signature : 6676AE08
->Track not present in AccurateRip database.
Statistics
Read error : 0
Jitter error (maybe fixed) : 0
Retry sector count : 0
Damaged sector count : 0
No errors occurred
End of status report
-----BEGIN XLD SIGNATURE-----
fUk57_7SeXTX0nnFPeEGSIZ9S_1p2tTT7Q4xueObdPh5AdB7rndx3U2u_Z8ox3iIJ0bDSR..Ec233puZKSk_e_tJV9VPhmeeYgqbb0q
-----END XLD SIGNATURE-----
 
Содержание индексной карты (.CUE)
TITLE "Whatthefuckdoyouwant"
PERFORMER "Peter Brötzmann, Sonny Sharrock"
CATALOG 9120036681613
REM GENRE "Free Jazz"
REM DATE "2014"
REM DISCNUMBER 1
REM TOTALDISCS 1
REM DISCID 9710F70B
REM REPLAYGAIN_ALBUM_GAIN -8.69 dB
REM REPLAYGAIN_ALBUM_PEAK 0.988678
REM COMPILATION TRUE
FILE "01 - Whatthefuckdoyouwant 1.flac" WAVE
TRACK 01 AUDIO
TITLE "Whatthefuckdoyouwant 1"
PERFORMER "Peter Brötzmann, Sonny Sharrock"
ISRC ATD411409001
REM REPLAYGAIN_TRACK_GAIN -7.05 dB
REM REPLAYGAIN_TRACK_PEAK 0.988647
INDEX 01 00:00:00
TRACK 02 AUDIO
TITLE "Whatthefuckdoyouwant 2"
PERFORMER "Peter Brötzmann, Sonny Sharrock"
ISRC ATD411409002
REM REPLAYGAIN_TRACK_GAIN -8.32 dB
REM REPLAYGAIN_TRACK_PEAK 0.988678
INDEX 00 03:29:29
FILE "02 - Whatthefuckdoyouwant 2.flac" WAVE
INDEX 01 00:00:00
TRACK 03 AUDIO
TITLE "Whatthefuckdoyouwant 3"
PERFORMER "Peter Brötzmann, Sonny Sharrock"
ISRC ATD411409003
REM REPLAYGAIN_TRACK_GAIN -9.09 dB
REM REPLAYGAIN_TRACK_PEAK 0.988647
INDEX 00 08:33:48
FILE "03 - Whatthefuckdoyouwant 3.flac" WAVE
INDEX 01 00:00:00
TRACK 04 AUDIO
TITLE "Whatthefuckdoyouwant 4"
PERFORMER "Peter Brötzmann, Sonny Sharrock"
ISRC ATD411409004
REM REPLAYGAIN_TRACK_GAIN -8.60 dB
REM REPLAYGAIN_TRACK_PEAK 0.988678
INDEX 00 08:11:05
FILE "04 - Whatthefuckdoyouwant 4.flac" WAVE
INDEX 01 00:00:00
TRACK 05 AUDIO
TITLE "Whatthefuckdoyouwant 5"
PERFORMER "Peter Brötzmann, Sonny Sharrock"
ISRC ATD411409005
REM REPLAYGAIN_TRACK_GAIN -9.24 dB
REM REPLAYGAIN_TRACK_PEAK 0.988647
INDEX 00 08:10:44
FILE "05 - Whatthefuckdoyouwant 5.flac" WAVE
INDEX 01 00:00:00
TRACK 06 AUDIO
TITLE "Whatthefuckdoyouwant 6"
PERFORMER "Peter Brötzmann, Sonny Sharrock"
ISRC ATD411409006
REM REPLAYGAIN_TRACK_GAIN -8.65 dB
REM REPLAYGAIN_TRACK_PEAK 0.988647
INDEX 00 05:46:59
FILE "06 - Whatthefuckdoyouwant 6.flac" WAVE
INDEX 01 00:00:00
TRACK 07 AUDIO
TITLE "Whatthefuckdoyouwant 7"
PERFORMER "Peter Brötzmann, Sonny Sharrock"
ISRC ATD411409007
REM REPLAYGAIN_TRACK_GAIN -8.77 dB
REM REPLAYGAIN_TRACK_PEAK 0.988678
INDEX 00 06:27:29
FILE "07 - Whatthefuckdoyouwant 7.flac" WAVE
INDEX 01 00:00:00
TRACK 08 AUDIO
TITLE "Whatthefuckdoyouwant 8"
PERFORMER "Peter Brötzmann, Sonny Sharrock"
ISRC ATD411409008
REM REPLAYGAIN_TRACK_GAIN -8.47 dB
REM REPLAYGAIN_TRACK_PEAK 0.988617
INDEX 00 04:41:00
FILE "08 - Whatthefuckdoyouwant 8.flac" WAVE
INDEX 01 00:00:00
TRACK 09 AUDIO
TITLE "Whatthefuckdoyouwant 9"
PERFORMER "Peter Brötzmann, Sonny Sharrock"
ISRC ATD411409009
REM REPLAYGAIN_TRACK_GAIN -8.97 dB
REM REPLAYGAIN_TRACK_PEAK 0.988647
INDEX 00 06:11:63
FILE "09 - Whatthefuckdoyouwant 9.flac" WAVE
INDEX 01 00:00:00
TRACK 10 AUDIO
TITLE "Whatthefuckdoyouwant 10"
PERFORMER "Peter Brötzmann, Sonny Sharrock"
ISRC ATD411409010
REM REPLAYGAIN_TRACK_GAIN -8.53 dB
REM REPLAYGAIN_TRACK_PEAK 0.988647
INDEX 00 09:43:37
FILE "10 - Whatthefuckdoyouwant 10.flac" WAVE
INDEX 01 00:00:00
TRACK 11 AUDIO
TITLE "Whatthefuckdoyouwant 11"
PERFORMER "Peter Brötzmann, Sonny Sharrock"
ISRC ATD411409011
REM REPLAYGAIN_TRACK_GAIN -7.25 dB
REM REPLAYGAIN_TRACK_PEAK 0.988617
INDEX 00 06:03:62
FILE "11 - Whatthefuckdoyouwant 11.flac" WAVE
INDEX 01 00:00:00
 
auCDtect Task Manager
-----------------------
DON'T MODIFY THIS FILE
-----------------------
PERFORMER: auCDtect Task Manager, ver. 1.5.1RC6 build 1.5.1.7
Copyright (c) 2008-2010 y-soft. All rights reserved
http://y-soft.org
ANALYZER: auCDtect: CD records authenticity detector, version 0.8.2
Copyright (c) 2004 Oleg Berngardt. All rights reserved.
Copyright (c) 2004 Alexander Djourik. All rights reserved.
FILE: 11 - Whatthefuckdoyouwant 11.flac
Size: 25305857 Hash: 61B567986533C08D9D4208A962CCC38B Accuracy: -m0
Conclusion: CDDA 100%
Signature: 58F393DCC6596CD539FFA6C6C18C0F15B647ABD6
FILE: 10 - Whatthefuckdoyouwant 10.flac
Size: 33169272 Hash: 2CDDCFBE3093EAB44C7F6E83651B63DA Accuracy: -m0
Conclusion: CDDA 100%
Signature: A5E433AF7153CF68944DA63C3695C37DAF44B9E4
FILE: 09 - Whatthefuckdoyouwant 9.flac
Size: 54328714 Hash: 4F213A2E391EDC64C62FC3D812A9AD37 Accuracy: -m0
Conclusion: CDDA 100%
Signature: E41E5809C7D665BAD8E474EB6660D09E56BDFDF8
FILE: 08 - Whatthefuckdoyouwant 8.flac
Size: 35510732 Hash: 4F2EEB49AFF3FB20CB3958A1F9D350A9 Accuracy: -m0
Conclusion: CDDA 100%
Signature: 065B8D05324C58F11ACA8D2604097B194F67494A
FILE: 07 - Whatthefuckdoyouwant 7.flac
Size: 26929559 Hash: E094B31D00079FFE9E0B5166190D3988 Accuracy: -m0
Conclusion: CDDA 99%
Signature: E27958695B1F470833A0DC37C5DD441BE9C10BC5
FILE: 06 - Whatthefuckdoyouwant 6.flac
Size: 36221308 Hash: C0FE9640A381BF0B6F9DA446AF1262CD Accuracy: -m0
Conclusion: CDDA 100%
Signature: 8474C3DB19CE286F2519895E657B454BEEC76EA2
FILE: 05 - Whatthefuckdoyouwant 5.flac
Size: 34354428 Hash: CBBF3698673194411800BEDE348C842F Accuracy: -m0
Conclusion: CDDA 100%
Signature: 58D4D47C5DC14EFCDB3D598C6A4ECC32B0691959
FILE: 04 - Whatthefuckdoyouwant 4.flac
Size: 46696991 Hash: 038B104A05688CE973E1CCD86DB667DD Accuracy: -m0
Conclusion: CDDA 100%
Signature: 3FFB1DA1A45DC86EAEC9EF00F26ADACC2731C056
FILE: 03 - Whatthefuckdoyouwant 3.flac
Size: 47914221 Hash: 358CF8547E304FA6BE9EC3929EA974CE Accuracy: -m0
Conclusion: CDDA 99%
Signature: EAD32F6589E5916787F7A1E5E10F1E4920337991
FILE: 02 - Whatthefuckdoyouwant 2.flac
Size: 50641923 Hash: 978DB8E20186351BB987D264E7878EAE Accuracy: -m0
Conclusion: CDDA 100%
Signature: 6ACCC0FB6049F31A903ACD495F602ADBB2575053
FILE: 01 - Whatthefuckdoyouwant 1.flac
Size: 21116795 Hash: F42341F7320A6142E2EE5CA54F4028EC Accuracy: -m0
Conclusion: CDDA 100%
Signature: 4866FC1F84A31F0B4211B4F141DCAE8E2508749A
По всем вопросам пишите личное сообщение пользователю M0p94ok.
05:15
184
Нет комментариев. Ваш будет первым!