Вы используете незарегистрированную версию компонента "Вкладки"!

Поиск

(Avant-Garde, Free Improvisation) [CD] Max Johnson Trio (Kirk Knuffke, Ziv Ravitz) - The Invisible Trio - 2014, FLAC (tracks+.cue), lossless

(Avant-Garde, Free Improvisation) [CD] Max Johnson Trio (Kirk Knuffke, Ziv Ravitz) - The Invisible Trio - 2014, FLAC (tracks+.cue), lossless
Треклист:
Max Johnson Trio / The Invisible Trio
Жанр: Avant-Garde, Free Improvisation
Носитель: CD
Страна-производитель диска: Spain
Год издания: 2014
Издатель (лейбл): Fresh Sound New Talent
Номер по каталогу: FSNT 438
Аудиокодек: FLAC (*.flac)
Тип рипа: tracks+.cue
Битрейт аудио: lossless
Продолжительность: 40:30
Источник (релизер): я
Наличие сканов в содержимом раздачи: да
Треклист:
1. The Pretzel 3:47
2. Bizza 7:55
3. Held for Questioning 4:15
4. Don Wrinkles 4:58
5. The Invisible Trio 4:13
6. Moving Vehicle 4:02
7. A Pair of Glasses 6:52
8. The Golem 4:28
All compositions by Max Johnson.
Recorded at Acoustic Recording, May 29, 2013.
Kirk Knuffke – Cornet
Max Johnson – Bass
Ziv Ravitz – Drums
 
Лог создания рипа
Exact Audio Copy V1.0 beta 3 from 29. August 2011
EAC extraction logfile from 5. September 2014, 16:34
Max Johnson Trio / The Invisible Trio
Used drive : SlimtypeeNAU508 5 Adapter: 1 ID: 0
Read mode : Secure
Utilize accurate stream : Yes
Defeat audio cache : Yes
Make use of C2 pointers : No
Read offset correction : 6
Overread into Lead-In and Lead-Out : No
Fill up missing offset samples with silence : Yes
Delete leading and trailing silent blocks : No
Null samples used in CRC calculations : Yes
Used interface : Native Win32 interface for Win NT & 2000
Gap handling : Appended to previous track
Used output format : User Defined Encoder
Selected bitrate : 768 kBit/s
Quality : High
Add ID3 tag : No
Command line compressor : C:\Program Files (x86)\Exact Audio Copy\Flac\flac.exe
Additional command line options : -8 -V -T "ARTIST=%artist%" -T "TITLE=%title%" -T "ALBUM=%albumtitle%" -T "DATE=%year%" -T "TRACKNUMBER=%tracknr%" -T "TOTALTRACKS=%numtracks%" -T "GENRE=%genre%" -T "ALBUMARTIST=%albumartist%" -T "ALBUM ARTIST=%albumartist%" -T "COMMENT=EAC Secure Mode, Test & Copy, AccurateRip, FLAC -8" %source%
TOC of the extracted CD
Track | Start | Length | Start sector | End sector
---------------------------------------------------------
1 | 0:00.00 | 3:46.56 | 0 | 17005
2 | 3:46.56 | 7:55.37 | 17006 | 52667
3 | 11:42.18 | 4:15.09 | 52668 | 71801
4 | 15:57.27 | 4:58.23 | 71802 | 94174
5 | 20:55.50 | 4:12.53 | 94175 | 113127
6 | 25:08.28 | 4:01.60 | 113128 | 131262
7 | 29:10.13 | 6:51.65 | 131263 | 162152
8 | 36:02.03 | 4:27.74 | 162153 | 182251
Track 1
Filename C:\EAC rips\01 - The Pretzel.wav
Pre-gap length 0:00:02.00
Peak level 88.5 %
Extraction speed 1.9 X
Track quality 99.9 %
Test CRC 136A4E9E
Copy CRC 136A4E9E
Track not present in AccurateRip database
Copy OK
Track 2
Filename C:\EAC rips\02 - Bizza.wav
Pre-gap length 0:00:01.00
Peak level 88.4 %
Extraction speed 2.8 X
Track quality 100.0 %
Test CRC D8C0139C
Copy CRC D8C0139C
Track not present in AccurateRip database
Copy OK
Track 3
Filename C:\EAC rips\03 - Held for Questioning.wav
Peak level 88.6 %
Extraction speed 2.9 X
Track quality 100.0 %
Test CRC C0396818
Copy CRC C0396818
Track not present in AccurateRip database
Copy OK
Track 4
Filename C:\EAC rips\04 - Don Wrinkles.wav
Peak level 88.7 %
Extraction speed 3.2 X
Track quality 100.0 %
Test CRC 5A9B2712
Copy CRC 5A9B2712
Track not present in AccurateRip database
Copy OK
Track 5
Filename C:\EAC rips\05 - The Invisible Trio.wav
Peak level 88.2 %
Extraction speed 3.3 X
Track quality 100.0 %
Test CRC 23C09B9F
Copy CRC 23C09B9F
Track not present in AccurateRip database
Copy OK
Track 6
Filename C:\EAC rips\06 - Moving Vehicle.wav
Peak level 88.9 %
Extraction speed 3.5 X
Track quality 100.0 %
Test CRC 4B426E77
Copy CRC 4B426E77
Track not present in AccurateRip database
Copy OK
Track 7
Filename C:\EAC rips\07 - A Pair of Glasses.wav
Peak level 75.5 %
Extraction speed 3.9 X
Track quality 100.0 %
Test CRC 9FC91B24
Copy CRC 9FC91B24
Track not present in AccurateRip database
Copy OK
Track 8
Filename C:\EAC rips\08 - The Golem.wav
Pre-gap length 0:00:02.00
Peak level 88.6 %
Extraction speed 3.9 X
Track quality 100.0 %
Test CRC 56E34ACB
Copy CRC 56E34ACB
Track not present in AccurateRip database
Copy OK
None of the tracks are present in the AccurateRip database
No errors occurred
End of status report
---- CUETools DB Plugin V2.1.4
[CTDB TOCID: McVCMG7EQRoKvDHjSETvNDpPVIk-] disk not present in database
Submit result: McVCMG7EQRoKvDHjSETvNDpPVIk- has been uploaded
==== Log checksum A70457F3D5BFB47388E1F7ACB11ADB32268B819239CAD8DFB5810C6F6DF3705E ====
 
Содержание индексной карты (.CUE)
REM GENRE Jazz
REM DATE 2014
REM DISCID 62097E08
REM COMMENT "ExactAudioCopy v1.0b3"
PERFORMER "Max Johnson Trio"
TITLE "The Invisible Trio"
FILE "01 - The Pretzel.wav" WAVE
TRACK 01 AUDIO
TITLE "The Pretzel"
PERFORMER "Max Johnson Trio"
FLAGS DCP
INDEX 01 00:00:00
TRACK 02 AUDIO
TITLE "Bizza"
PERFORMER "Max Johnson Trio"
FLAGS DCP
INDEX 00 03:45:56
FILE "02 - Bizza.wav" WAVE
INDEX 01 00:00:00
FILE "03 - Held for Questioning.wav" WAVE
TRACK 03 AUDIO
TITLE "Held for Questioning"
PERFORMER "Max Johnson Trio"
FLAGS DCP
INDEX 01 00:00:00
FILE "04 - Don Wrinkles.wav" WAVE
TRACK 04 AUDIO
TITLE "Don Wrinkles"
PERFORMER "Max Johnson Trio"
FLAGS DCP
INDEX 01 00:00:00
FILE "05 - The Invisible Trio.wav" WAVE
TRACK 05 AUDIO
TITLE "The Invisible Trio"
PERFORMER "Max Johnson Trio"
FLAGS DCP
INDEX 01 00:00:00
FILE "06 - Moving Vehicle.wav" WAVE
TRACK 06 AUDIO
TITLE "Moving Vehicle"
PERFORMER "Max Johnson Trio"
FLAGS DCP
INDEX 01 00:00:00
FILE "07 - A Pair of Glasses.wav" WAVE
TRACK 07 AUDIO
TITLE "A Pair of Glasses"
PERFORMER "Max Johnson Trio"
FLAGS DCP
INDEX 01 00:00:00
TRACK 08 AUDIO
TITLE "The Golem"
PERFORMER "Max Johnson Trio"
FLAGS DCP
INDEX 00 06:49:65
FILE "08 - The Golem.wav" WAVE
INDEX 01 00:00:00
По всем вопросам пишите личное сообщение пользователю M0p94ok.
05:17
178
Нет комментариев. Ваш будет первым!