Поиск

(Free Jazz, Contemporary Jazz, Free Improvisation) Stefano Mangia / Adolfo La Volpe / Stefania Ladisa / Angelo Urso - CD "Ulysses" - 2012, FLAC (image+.cue), lossless

Треклист:
Stefano Mangia/ Adolfo La Volpe/ Stefania Ladisa/Angelo Urso
CD "Ulysses"

Жанр: Free Jazz, Contemporary Jazz, Free Improvisation •◦• Страна этой группы исполнителей: Italy •◦• Носитель: CD
Страна-производитель диска: Great Britain •◦• Label: Leo Records | CD LR 627 •◦• Год издания: 2012
Аудиокодек: FLAC (*.flac) •◦• Тип рипа: image+.cue •◦• Битрейт аудио: lossless
Источник: Собственный диск •◦• Наличие сканов в содержимом раздачи: нет

Лист-трек
01. Impro#1
02. Stratosfonie (to Demetrio Stratos) (music S.L. Mangia / lyrics J. Cage)
03. Impro#2
04. Impro#3
05. Aforisma-LDV (to Leonardo da Vinci) (мужик S.L. Mangia / текст L. da Vinci)
06. Composizione In 48 cm (to Fyodor Dostoyevsky) (music S. Ladisa)
07. 1969 (to Albert Einstein) (music A. Urso)
08. Mlk (to Martin Luther King) (music S.L. Mangia)
09. Cada Jardin Solo (to J.L. Borges) (music A. La Volpe / lyrics J.L. Borges)
10. Impro#4
11. Perfetta Letizia (to San Francesco) (music S. Ladisa)
12. La Virtù Temporale (to Kurt Gödel) (music A. La Volpe)
13. Ulysses (to Ulysses) (music & lyrics S.L. Mangia)
Продолжительность: 00:47:18
 
•••
Об Составе
Stefano Luigi Mangia - voice, alto sax, toys
Stefania Ladisa - violin, toys, voice
Adolfo La Volpe - acoustic & electric guitars, harmonium, electronics, banjo, cetera corsa, voice
Angelo Urso - double bass, toys, voice
 
Об Логе создания рипа
Exact Audio Copy V1.0 beta 3 from 29. August 2011
EAC extraction logfile from 15. October 2014, 8:58
Stefano Mangia / Adolfo La Volpe / Stefania Ladisa / Angelo Urso / Ulysses
Used drive : ASUS DRW-24B5ST Adapter: 1 ID: 0
Read mode : Secure
Utilize accurate stream : Yes
Defeat audio cache : Yes
Make use of C2 pointers : No
Read offset correction : 6
Overread into Lead-In and Lead-Out : No
Fill up missing offset samples with silence : Yes
Delete leading and trailing silent blocks : No
Null samples used in CRC calculations : Yes
Used interface : Native Win32 interface for Win NT & 2000
Used output format : User Defined Encoder
Selected bitrate : 128 kBit/s
Quality : High
Add ID3 tag : Yes
Command line compressor : C:\Program Files\Exact Audio Copy\Flac\flac.exe
Additional command line options : -V -8 -T "Date=%year%" -T "Genre=%genre%" %source%
TOC of the extracted CD
Track | Start | Length | Start sector | End sector
---------------------------------------------------------
1 | 0:00.00 | 2:28.54 | 0 | 11153
2 | 2:28.54 | 8:52.06 | 11154 | 51059
3 | 11:20.60 | 3:02.14 | 51060 | 64723
4 | 14:22.74 | 2:43.22 | 64724 | 76970
5 | 17:06.21 | 0:57.26 | 76971 | 81271
6 | 18:03.47 | 6:04.37 | 81272 | 108608
7 | 24:08.09 | 1:14.01 | 108609 | 114159
8 | 25:22.10 | 3:28.10 | 114160 | 129769
9 | 28:50.20 | 5:29.54 | 129770 | 154498
10 | 34:19.74 | 3:40.09 | 154499 | 171007
11 | 38:00.08 | 1:43.34 | 171008 | 178766
12 | 39:43.42 | 1:11.51 | 178767 | 184142
13 | 40:55.18 | 6:23.05 | 184143 | 212872
Range status and errors
Selected range
Filename D:\RIP\Stefano Mangia , Adolfo La Volpe , Stefania Ladisa , Angelo Urso - Ulysses.wav
Peak level 100.0 %
Extraction speed 8.5 X
Range quality 100.0 %
Test CRC E8670AC2
Copy CRC E8670AC2
Copy OK
No errors occurred
AccurateRip summary
Track 1 accurately ripped (confidence 1) [FEF4D0D5] (AR v2)
Track 2 accurately ripped (confidence 1) [1B232513] (AR v2)
Track 3 accurately ripped (confidence 1) [CDAFBBC8] (AR v2)
Track 4 accurately ripped (confidence 1) [D6F982D6] (AR v2)
Track 5 accurately ripped (confidence 1) [14DC2980] (AR v2)
Track 6 accurately ripped (confidence 1) [4E8E9115] (AR v2)
Track 7 accurately ripped (confidence 1) [A3487EE6] (AR v2)
Track 8 accurately ripped (confidence 1) [FC262F6B] (AR v2)
Track 9 accurately ripped (confidence 1) [E88A26C9] (AR v2)
Track 10 accurately ripped (confidence 1) [FCE5DCAD] (AR v2)
Track 11 accurately ripped (confidence 1) [1751B735] (AR v2)
Track 12 accurately ripped (confidence 1) [A415A887] (AR v2)
Track 13 accurately ripped (confidence 1) [BB4F0A3D] (AR v2)
All tracks accurately ripped
End of status report
==== Log checksum 6B53EFC99534AD9222D11B8F367AD0935589FB77432CF7B066CFC57E206271DA ====
 
Об Содержании индексной карты
REM GENRE Avantgarde
REM DATE 2012
REM DISCID A10B160D
REM COMMENT "ExactAudioCopy v1.0b3"
PERFORMER "Stefano Mangia / Adolfo La Volpe / Stefania Ladisa / Angelo Urso"
TITLE "Ulysses"
FILE "Stefano Mangia , Adolfo La Volpe , Stefania Ladisa , Angelo Urso - Ulysses.flac" WAVE
TRACK 01 AUDIO
TITLE "Impro #1"
PERFORMER "Stefano Mangia / Adolfo La Volpe / Stefania Ladisa / Angelo Urso"
INDEX 01 00:00:00
TRACK 02 AUDIO
TITLE "Stratosfonie (to Demetrio Stratos)"
PERFORMER "Stefano Mangia / Adolfo La Volpe / Stefania Ladisa / Angelo Urso"
INDEX 00 02:26:54
INDEX 01 02:28:54
TRACK 03 AUDIO
TITLE "Impro #2"
PERFORMER "Stefano Mangia / Adolfo La Volpe / Stefania Ladisa / Angelo Urso"
INDEX 00 11:18:60
INDEX 01 11:20:60
TRACK 04 AUDIO
TITLE "Impro #3"
PERFORMER "Stefano Mangia / Adolfo La Volpe / Stefania Ladisa / Angelo Urso"
INDEX 00 14:20:74
INDEX 01 14:22:74
TRACK 05 AUDIO
TITLE "Aforisma-LDV (to Leonardo da Vinci)"
PERFORMER "Stefano Mangia / Adolfo La Volpe / Stefania Ladisa / Angelo Urso"
INDEX 00 17:04:21
INDEX 01 17:06:21
TRACK 06 AUDIO
TITLE "Composizione In 48Cm (To F.Dostoeyvsky)"
PERFORMER "Stefano Mangia / Adolfo La Volpe / Stefania Ladisa / Angelo Urso"
INDEX 00 18:01:47
INDEX 01 18:03:47
TRACK 07 AUDIO
TITLE "1969 (To A.Einstein)"
PERFORMER "Stefano Mangia / Adolfo La Volpe / Stefania Ladisa / Angelo Urso"
INDEX 00 24:06:09
INDEX 01 24:08:09
TRACK 08 AUDIO
TITLE "Mlk (to Martin Luther King)"
PERFORMER "Stefano Mangia / Adolfo La Volpe / Stefania Ladisa / Angelo Urso"
INDEX 00 25:20:10
INDEX 01 25:22:10
TRACK 09 AUDIO
TITLE "Cada Jardin Solo (To J.L.Borges)"
PERFORMER "Stefano Mangia / Adolfo La Volpe / Stefania Ladisa / Angelo Urso"
INDEX 00 28:48:20
INDEX 01 28:50:20
TRACK 10 AUDIO
TITLE "Impro #4"
PERFORMER "Stefano Mangia / Adolfo La Volpe / Stefania Ladisa / Angelo Urso"
INDEX 00 34:17:74
INDEX 01 34:19:74
TRACK 11 AUDIO
TITLE "Perfetta Letizia (To San Francesco D'assisi)"
PERFORMER "Stefano Mangia / Adolfo La Volpe / Stefania Ladisa / Angelo Urso"
INDEX 00 37:58:08
INDEX 01 38:00:08
TRACK 12 AUDIO
TITLE "La Virtu Temporale (To K.Godel)"
PERFORMER "Stefano Mangia / Adolfo La Volpe / Stefania Ladisa / Angelo Urso"
INDEX 00 39:41:42
INDEX 01 39:43:42
TRACK 13 AUDIO
TITLE "Ulysses (to Ulysses)"
PERFORMER "Stefano Mangia / Adolfo La Volpe / Stefania Ladisa / Angelo Urso"
INDEX 00 40:53:18
INDEX 01 40:55:18
 
Об альбоме
Recorded and mixed at Adhil Studio, Ceglie del Campo (Bari, Italy), February-April 2011
 
Не очень серьёзно, если чё
  • Собрались однажды Степан, Степанида, Анжелурса да Гитлер и забабахали сей альбом. И кстати у всех были игрушки-toys и собственный голос-voice (один Гитлер был без игрушек). Интересно также, что Мартин Кинг оказывается был лузер (как поётся в 8 песне).
 
Об группе исполнителей
Информации мало. И у меня этот диск не помню как оказался. Но спели и сыграли по-моему очень неплохо. По сравнению со сборной Италии, так вообче- отлично.
 
Ани
  • В белом и сидит - это Степан, рядом с ним и без очков - это Степанида, кто из них Гитлер непонятно (оставшиеся вроде с усами) - может быть прикрутить голосовалку (вычислим мерзавца)?!

женские раздачи
мужские раздачи
По всем вопросам пишите личное сообщение пользователю M0p94ok.
05:18
194
Нет комментариев. Ваш будет первым!