Вы используете незарегистрированную версию компонента "Вкладки"!

Поиск

(Experimental Big Band, Post-Bop, Avant-Garde Jazz) Sam Rivers' Rivbea All-Star Orchestra - Culmination - 1998, FLAC (tracks+.cue), lossless

(Experimental Big Band, Post-Bop, Avant-Garde Jazz) Sam Rivers' Rivbea All-Star Orchestra - Culmination - 1998, FLAC (tracks+.cue), lossless
Треклист:
Sam Rivers' Rivbea All-Star Orchestra - Culmination
Жанр: Experimental Big Band, Post-Bop, Avant-Garde Jazz
Страна-производитель диска: Франция
Год издания: 2000
Издатель (лейбл): BMG France/RCA Victor
Страна: США
Аудиокодек: FLAC (*.flac)
Тип рипа: tracks+.cue
Битрейт аудио: lossless
Продолжительность: 59:35
Источник (релизер): denti (what)
Наличие сканов в содержимом раздачи: нет
Треклист:
01. Spectrum (Rivers) - 7:20
02. Bubbles (Rivers) - 8:27
03. Revelation (Rivers) - 10:37
04. Culmination (Rivers) - 8:13
05. Ripples (Rivers) - 12:39
06. Neptune (Rivers) - 5:53
07. Riffin' (Rivers) - 6:26
Состав:
Sam Rivers - soprano saxophone, tenor saxophone, flute
Steve Coleman, Greg Osby - alto saxophone
Chico Freeman, Gary Thomas - tenor saxophone
Hamiet Bluiett - baritone saxophone
Ravi Best, Ralph Alessi, James Zollar, Baikida Carroll - trumpet
Ray Anderson, Joseph Bowie, Art Baron - trombone
Joseph Daley - baritone horn
Bob Stewart - tuba
Doug Matthews - bass
Anthony Cole - drums
Recorded at Systems Two Recording Studios, Brooklyn, NY on September 28-29, 1998.
 
Лог создания рипа
Exact Audio Copy V1.0 beta 1 from 15. November 2010
EAC extraction logfile from 27. April 2011, 20:26
Sam Rivers' Rivbea All-Star Orchestra / Culmination
Used drive : TSSTcorpCD/DVDW SH-S182D Adapter: 1 ID: 0
Read mode : Secure
Utilize accurate stream : Yes
Defeat audio cache : Yes
Make use of C2 pointers : No
Read offset correction : 6
Overread into Lead-In and Lead-Out : No
Fill up missing offset samples with silence : Yes
Delete leading and trailing silent blocks : No
Null samples used in CRC calculations : Yes
Used interface : Native Win32 interface for Win NT & 2000
Gap handling : Appended to previous track
Used output format : User Defined Encoder
Selected bitrate : 128 kBit/s
Quality : High
Add ID3 tag : No
Command line compressor : C:\Program Files\Exact Audio Copy\Flac\flac.exe
Additional command line options : -V -8 -T "artist=%a" -T "title=%t" -T "album=%g" -T "date=%y" -T "tracknumber=%n" -T "genre=%m" %s
TOC of the extracted CD
Track | Start | Length | Start sector | End sector
---------------------------------------------------------
1 | 0:00.00 | 7:19.47 | 0 | 32971
2 | 7:19.47 | 8:27.20 | 32972 | 71016
3 | 15:46.67 | 10:36.53 | 71017 | 118769
4 | 26:23.45 | 8:12.40 | 118770 | 155709
5 | 34:36.10 | 12:38.45 | 155710 | 212604
6 | 47:14.55 | 5:53.15 | 212605 | 239094
7 | 53:07.70 | 6:26.05 | 239095 | 268049
Track 1
Filename F:\EACrips\Sam Rivers' Rivbea All-Star Orchestra - 1998 - Culmination\01 - Spectrum.wav
Pre-gap length 0:00:02.00
Peak level 92.0 %
Extraction speed 4.8 X
Track quality 100.0 %
Test CRC D5C5E9C1
Copy CRC D5C5E9C1
Accurately ripped (confidence 6) [C9FE4FF6]
Copy OK
Track 2
Filename F:\EACrips\Sam Rivers' Rivbea All-Star Orchestra - 1998 - Culmination\02 - Bubbles.wav
Peak level 100.0 %
Extraction speed 5.7 X
Track quality 100.0 %
Test CRC 25E856CD
Copy CRC 25E856CD
Accurately ripped (confidence 6) [F2305DB8]
Copy OK
Track 3
Filename F:\EACrips\Sam Rivers' Rivbea All-Star Orchestra - 1998 - Culmination\03 - Revelation.wav
Peak level 96.8 %
Extraction speed 6.7 X
Track quality 100.0 %
Test CRC 03F0DB23
Copy CRC 03F0DB23
Accurately ripped (confidence 6) [717BB911]
Copy OK
Track 4
Filename F:\EACrips\Sam Rivers' Rivbea All-Star Orchestra - 1998 - Culmination\04 - Culmination.wav
Peak level 99.2 %
Extraction speed 7.4 X
Track quality 100.0 %
Test CRC 6F045E6F
Copy CRC 6F045E6F
Accurately ripped (confidence 6) [730C30EF]
Copy OK
Track 5
Filename F:\EACrips\Sam Rivers' Rivbea All-Star Orchestra - 1998 - Culmination\05 - Ripples.wav
Peak level 98.2 %
Extraction speed 8.2 X
Track quality 100.0 %
Test CRC FF65231D
Copy CRC FF65231D
Accurately ripped (confidence 6) [DCD30635]
Copy OK
Track 6
Filename F:\EACrips\Sam Rivers' Rivbea All-Star Orchestra - 1998 - Culmination\06 - Neptune.wav
Peak level 99.6 %
Extraction speed 1.5 X
Track quality 99.2 %
Test CRC 5053CD30
Copy CRC 5053CD30
Accurately ripped (confidence 6) [A3D8862A]
Copy OK
Track 7
Filename F:\EACrips\Sam Rivers' Rivbea All-Star Orchestra - 1998 - Culmination\07 - Riffin'.wav
Peak level 95.4 %
Extraction speed 5.4 X
Track quality 100.0 %
Test CRC 5670532D
Copy CRC 5670532D
Accurately ripped (confidence 6) [9A89E31A]
Copy OK
All tracks accurately ripped
No errors occurred
End of status report
==== Log checksum 205A8F3B0685FD5CDD669D6001BB63FA1ABDF47BEA3966B3F2AC05661EAED4ED ====
 
Содержание индексной карты (.CUE)
REM GENRE Jazz
REM DATE 1998
REM DISCID 6C0DF607
REM COMMENT "ExactAudioCopy v1.0b1"
PERFORMER "Sam Rivers' Rivbea All-Star Orchestra"
TITLE "Culmination"
FILE "01 - Spectrum.wav" WAVE
TRACK 01 AUDIO
TITLE "Spectrum"
PERFORMER "Sam Rivers' Rivbea All-Star Orchestra"
INDEX 01 00:00:00
FILE "02 - Bubbles.wav" WAVE
TRACK 02 AUDIO
TITLE "Bubbles"
PERFORMER "Sam Rivers' Rivbea All-Star Orchestra"
INDEX 01 00:00:00
FILE "03 - Revelation.wav" WAVE
TRACK 03 AUDIO
TITLE "Revelation"
PERFORMER "Sam Rivers' Rivbea All-Star Orchestra"
INDEX 01 00:00:00
FILE "04 - Culmination.wav" WAVE
TRACK 04 AUDIO
TITLE "Culmination"
PERFORMER "Sam Rivers' Rivbea All-Star Orchestra"
INDEX 01 00:00:00
FILE "05 - Ripples.wav" WAVE
TRACK 05 AUDIO
TITLE "Ripples"
PERFORMER "Sam Rivers' Rivbea All-Star Orchestra"
INDEX 01 00:00:00
FILE "06 - Neptune.wav" WAVE
TRACK 06 AUDIO
TITLE "Neptune"
PERFORMER "Sam Rivers' Rivbea All-Star Orchestra"
INDEX 01 00:00:00
FILE "07 - Riffin'.wav" WAVE
TRACK 07 AUDIO
TITLE "Riffin'"
PERFORMER "Sam Rivers' Rivbea All-Star Orchestra"
INDEX 01 00:00:00
 
Отчет CUETools
[CUETools log; Date: 12.04.2013 20:15:26; Version: 2.1.4]
[CTDB TOCID: 9K4.UtklXpfMER6iDEALFrPs4Ag-] disk not present in database.
[AccurateRip ID: 0010c1eb-00651c11-6c0df607] found.
Track [ CRC | V2 ] Status
01 [c9fe4ff6|0dd95687] (6+0/6) Accurately ripped
02 [f2305db8|b6a96dc9] (6+0/6) Accurately ripped
03 [717bb911|f69aaf1f] (6+0/6) Accurately ripped
04 [730c30ef|d45c9ee3] (6+0/6) Accurately ripped
05 [dcd30635|9035022c] (6+0/6) Accurately ripped
06 [a3d8862a|522d09a6] (6+0/6) Accurately ripped
07 [9a89e31a|81a6bee4] (6+0/6) Accurately ripped
Track Peak [ CRC32 ] [W/O NULL] [ LOG ]
-- 100,0 [3474F39C] [85292819]
01 92,0 [D5C5E9C1] [43B5EE65] CRC32
02 100,0 [25E856CD] [2B6DF156] CRC32
03 96,8 [03F0DB23] [D6A91583] CRC32
04 99,2 [6F045E6F] [E015CD9F] CRC32
05 98,2 [FF65231D] [DABFA0C7] CRC32
06 99,6 [5053CD30] [1C0644F4] CRC32
07 95,4 [5670532D] [C89B31CB] CRC32
 
Review by Scott Yanow
Sam Rivers' second recording with his Rivbea All-Star Orchestra for RCA is similar to his first one in that he uses an impressive 17-piece band full of top avant-gardists to interpret the dense arrangements of his originals. The music, which is frequently atonal, has so much going on at times that it will take several listens to comprehend everything; it certainly does not lose one's interest! The only fault to this stimulating set is that the soloists are not identified. Although one may recognize the various saxophonists (Steve Coleman, Greg Osby, Chico Freeman, Gary Thomas, and Hamiet Blueitt) and trombonist Ray Anderson, most of the brass players will be more difficult to determine. This very adventurous music is remarkable in ways and well worth acquiring by free jazz collectors.
Any questions -> support@pro-jazz.com. По всем вопросам пишите -> support@pro-jazz.com
11:01
168
Нет комментариев. Ваш будет первым!