Вы используете незарегистрированную версию компонента "Вкладки"!

Поиск

(Free Jazz) Dennis Gonzalez's Spirit Meridian - Idle Wild - 2005, FLAC (tracks+.cue), lossless

(Free Jazz) Dennis Gonzalez's Spirit Meridian - Idle Wild - 2005, FLAC (tracks+.cue), lossless
Треклист:
Dennis González's Spirit Meridian / Idle Wild
Жанр: Free Jazz
Страна-производитель диска: Portugal
Год издания: 2005
Издатель (лейбл): Clean Feed
Номер по каталогу: CF035CD
Аудиокодек: FLAC (*.flac)
Тип рипа: tracks+.cue
Битрейт аудио: lossless
Продолжительность: 1:08:53
Источник (релизер): Max Monteiro
Наличие сканов в содержимом раздачи: нет
Треклист:
1. Elechi – Elegy for Malachi Favors (Dennis González) 21:37
2. Bush Medicine (Dennis González) 12:23
3. Dust (Dennis González) 8:52
4. Idle Wild (Oliver Lake, Dennis González, Ken Filiano, Michael T. A. Thompson) 11:34
5. Song (Dennis González) 8:23
6. Document for Toshinori Kondo (Yells at Eels) 6:04
 
Лог создания рипа
Exact Audio Copy V1.0 beta 3 from 29. August 2011
EAC extraction logfile from 13. April 2013, 9:50
Dennis González's Spirit Meridian / Idle Wild
Used drive : SlimtypeeNAU508 5 Adapter: 1 ID: 0
Read mode : Secure
Utilize accurate stream : Yes
Defeat audio cache : Yes
Make use of C2 pointers : No
Read offset correction : 6
Overread into Lead-In and Lead-Out : No
Fill up missing offset samples with silence : Yes
Delete leading and trailing silent blocks : No
Null samples used in CRC calculations : Yes
Used interface : Native Win32 interface for Win NT & 2000
Gap handling : Appended to previous track
Used output format : User Defined Encoder
Selected bitrate : 768 kBit/s
Quality : High
Add ID3 tag : No
Command line compressor : C:\Program Files (x86)\Exact Audio Copy\Flac\flac.exe
Additional command line options : -8 -V -T "ARTIST=%artist%" -T "TITLE=%title%" -T "ALBUM=%albumtitle%" -T "DATE=%year%" -T "TRACKNUMBER=%tracknr%" -T "GENRE=%genre%" -T "PERFORMER=%albuminterpret%" -T "COMPOSER=%composer%" %haslyrics%--tag-from-file=LYRICS="%lyricsfile%"%haslyrics% -T "ALBUMARTIST=%albumartist%" -T "DISCNUMBER=%cdnumber%" -T "TOTALDISCS=%totalcds%" -T "TOTALTRACKS=%numtracks%" -T "COMMENT=%comment%" %source% -o %dest%
TOC of the extracted CD
Track | Start | Length | Start sector | End sector
---------------------------------------------------------
1 | 0:00.00 | 21:36.43 | 0 | 97242
2 | 21:36.43 | 12:23.12 | 97243 | 152979
3 | 33:59.55 | 8:52.29 | 152980 | 192908
4 | 42:52.09 | 11:33.67 | 192909 | 244950
5 | 54:26.01 | 8:23.29 | 244951 | 282704
6 | 62:49.30 | 6:03.64 | 282705 | 309993
Track 1
Filename C:\EAC rips\01 - Elechi - Elegy for Malachi Favors.wav
Pre-gap length 0:00:02.00
Peak level 100.0 %
Extraction speed 2.8 X
Track quality 100.0 %
Test CRC F23CC3F5
Copy CRC F23CC3F5
Accurately ripped (confidence 4) [FA083CEF] (AR v1)
Copy OK
Track 2
Filename C:\EAC rips\02 - Bush Medicine.wav
Pre-gap length 0:00:03.00
Peak level 100.0 %
Extraction speed 3.6 X
Track quality 100.0 %
Test CRC C681BB80
Copy CRC C681BB80
Accurately ripped (confidence 4) [ED40D257] (AR v1)
Copy OK
Track 3
Filename C:\EAC rips\03 - Dust.wav
Pre-gap length 0:00:03.00
Peak level 100.0 %
Extraction speed 3.9 X
Track quality 100.0 %
Test CRC 4FD7D5A1
Copy CRC 4FD7D5A1
Accurately ripped (confidence 4) [E36A5D9F] (AR v1)
Copy OK
Track 4
Filename C:\EAC rips\04 - Idle Wild.wav
Pre-gap length 0:00:03.00
Peak level 100.0 %
Extraction speed 4.0 X
Track quality 99.9 %
Test CRC 9B9CC21F
Copy CRC 9B9CC21F
Accurately ripped (confidence 4) [DD28B8FD] (AR v1)
Copy OK
Track 5
Filename C:\EAC rips\05 - Song.wav
Pre-gap length 0:00:03.00
Peak level 100.0 %
Extraction speed 4.5 X
Track quality 100.0 %
Test CRC 96E40156
Copy CRC 96E40156
Accurately ripped (confidence 4) [7D7FEE19] (AR v1)
Copy OK
Track 6
Filename C:\EAC rips\06 - Document for Toshinori Kondo.wav
Pre-gap length 0:00:03.00
Peak level 100.0 %
Extraction speed 3.9 X
Track quality 99.9 %
Test CRC A302BB83
Copy CRC A302BB83
Accurately ripped (confidence 4) [DB712DA8] (AR v1)
Copy OK
All tracks accurately ripped
No errors occurred
End of status report
---- CUETools DB Plugin V2.1.4
[CTDB TOCID: .R1MdaWWB42wZMVi7iqljI9e.6Q-] disk not present in database
Submit result: .R1MdaWWB42wZMVi7iqljI9e.6Q- has been uploaded
==== Log checksum 38F3280EAA7A032B8A2DD5D239AC9F9F63D4836780A26DDF3A9DC09B1C527BBF ====
 
Содержание индексной карты (.CUE)
REM GENRE Jazz
REM DATE 2005
REM DISCID 54102506
REM COMMENT "ExactAudioCopy v1.0b3"
PERFORMER "Dennis González's Spirit Meridian"
TITLE "Idle Wild"
FILE "01 - Elechi - Elegy for Malachi Favors.wav" WAVE
TRACK 01 AUDIO
TITLE "Elechi - Elegy for Malachi Favors"
PERFORMER "Dennis González's Spirit Meridian"
FLAGS DCP
INDEX 01 00:00:00
TRACK 02 AUDIO
TITLE "Bush Medicine"
PERFORMER "Dennis González's Spirit Meridian"
FLAGS DCP
INDEX 00 21:33:43
FILE "02 - Bush Medicine.wav" WAVE
INDEX 01 00:00:00
TRACK 03 AUDIO
TITLE "Dust"
PERFORMER "Dennis González's Spirit Meridian"
FLAGS DCP
INDEX 00 12:20:12
FILE "03 - Dust.wav" WAVE
INDEX 01 00:00:00
TRACK 04 AUDIO
TITLE "Idle Wild"
PERFORMER "Dennis González's Spirit Meridian"
FLAGS DCP
INDEX 00 08:49:29
FILE "04 - Idle Wild.wav" WAVE
INDEX 01 00:00:00
TRACK 05 AUDIO
TITLE "Song"
PERFORMER "Dennis González's Spirit Meridian"
FLAGS DCP
INDEX 00 11:30:67
FILE "05 - Song.wav" WAVE
INDEX 01 00:00:00
TRACK 06 AUDIO
TITLE "Document for Toshinori Kondo"
PERFORMER "Dennis González's Spirit Meridian"
FLAGS DCP
INDEX 00 08:20:29
FILE "06 - Document for Toshinori Kondo.wav" WAVE
INDEX 01 00:00:00
Доп. информация: Recorded August 6, 2004, Park West Studio, Brooklyn.
 
Состав
Dennis González – Trumpet
Oliver Lake – Alto Saxophone
Ken Filiano – Double Bass
Michael T. A. Thompson – Drums
Any questions -> support@pro-jazz.com. По всем вопросам пишите -> support@pro-jazz.com
11:01
206
Нет комментариев. Ваш будет первым!