Вы используете незарегистрированную версию компонента "Вкладки"!

Поиск

(Avant-Garde Jazz, Free Jazz, Post-Bop) Sam Rivers - Trio Live - 1973, FLAC (tracks+.cue), lossless

(Avant-Garde Jazz, Free Jazz, Post-Bop) Sam Rivers - Trio Live - 1973, FLAC (tracks+.cue), lossless
Треклист:
Sam Rivers - Trio Live
Жанр: Avant-Garde Jazz, Free Jazz, Post-Bop
Страна-производитель диска: EU
Год издания: 1998
Издатель (лейбл): Impulse!/GRP
Номер по каталогу: IMP 12682
Страна: США
Аудиокодек: FLAC (*.flac)
Тип рипа: tracks+.cue
Битрейт аудио: lossless
Продолжительность: 63:28
Источник (релизер): emule
Наличие сканов в содержимом раздачи: да
Треклист:
01. Hues of Melanin (soprano saxophone, flute and vocal sections) (Rivers) - 34:11
02. Hues of Melanin (Ivory Black- the piano section) (Rivers) - 4:14
03. Hues of Melanin (Violet- the tenor saxophone section) (Rivers) - 5:43
04. Suite for Molde- Part One (a. Onyx- the soprano saxophone section/b. Topaz- the flute section) (Rivers) - 8:03
05. Suite for Molde- Part Two (the tenor saxophone section) (Rivers) - 11:17
Состав:
Sam Rivers - tenor saxophone, soprano saxophone, flute, piano
Cecil McBee - bass (#1-3)
Arild Andersen - bass (#4,5)
Lewis Worrell - bass
Barry Altschul - drums
#1-3 recorded live at the Battel Chapel, Yale University, New Haven, CT on November 10, 1973.
#4-5 recorded live at the Molde Jazz Festival, Molde (Norway) on August 3, 1973.
 
Лог создания рипа
EAC extraction logfile from 23. May 2005, 17:33 for CD
Sam Rivers / Trio Live
Used drive : PLEXTOR CD-R PX-W4824A Adapter: 1 ID: 0
Read mode : Secure with NO C2, accurate stream, disable cache
Read offset correction : 98
Overread into Lead-In and Lead-Out : Yes
Used output format : C:\Programme\FLAC\flac.exe (User Defined Encoder)
320 kBit/s
Additional command line options : -8 -V -T "artist=%a" -T "title=%t" -T "album=%g" -T "date=%y" -T "tracknumber=%n" -T "genre=%m" -T "comment=Impulse IMP 12682" %s
Other options :
Fill up missing offset samples with silence : Yes
Delete leading and trailing silent blocks : No
Installed external ASPI interface
Track 1
Filename C:\Sharing_Geplant\Sam Rivers - Trio Live (1973,1998) [FLAC]\01 - Hues of Melanin.wav
Pre-gap length 0:00:02.42
Peak level 97.5 %
Track quality 100.0 %
Test CRC E57BC513
Copy CRC E57BC513
Copy OK
Track 2
Filename C:\Sharing_Geplant\Sam Rivers - Trio Live (1973,1998) [FLAC]\02 - Hues of Melanin (Ivory Black - the piano section).wav
Pre-gap length 0:00:01.49
Peak level 91.6 %
Track quality 99.9 %
Test CRC 10B65C64
Copy CRC 10B65C64
Copy OK
Track 3
Filename C:\Sharing_Geplant\Sam Rivers - Trio Live (1973,1998) [FLAC]\03 - Hues of Melanin (Violet - the tenor saxophone section).wav
Pre-gap length 0:00:01.49
Peak level 95.3 %
Track quality 100.0 %
Test CRC A702F925
Copy CRC A702F925
Copy OK
Track 4
Filename C:\Sharing_Geplant\Sam Rivers - Trio Live (1973,1998) [FLAC]\04 - Suite for Molde - Part One.wav
Pre-gap length 0:00:03.50
Peak level 96.4 %
Track quality 100.0 %
Test CRC 8AE85386
Copy CRC 8AE85386
Copy OK
Track 5
Filename C:\Sharing_Geplant\Sam Rivers - Trio Live (1973,1998) [FLAC]\05 - Suite for Molde - Part Two.wav
Pre-gap length 0:00:01.37
Peak level 95.1 %
Track quality 100.0 %
Test CRC A2E3D2BE
Copy CRC A2E3D2BE
Copy OK
No errors occured
End of status report
 
Содержание индексной карты (.CUE)
REM GENRE Jazz
REM DATE 1973
REM DISCID 2F0EE005
REM COMMENT ExactAudioCopy v0.95b1
PERFORMER "Sam Rivers"
TITLE "Trio Live"
FILE "01 - Hues of Melanin.wav" WAVE
TRACK 01 AUDIO
TITLE "Hues of Melanin"
PERFORMER "Sam Rivers"
PREGAP 00:00:32
INDEX 01 00:00:00
TRACK 02 AUDIO
TITLE "Hues of Melanin (Ivory Black)"
PERFORMER "Sam Rivers"
INDEX 00 34:09:38
FILE "02 - Hues of Melanin (Ivory Black).wav" WAVE
INDEX 01 00:00:00
TRACK 03 AUDIO
TITLE "Hues of Melanin (Violet)"
PERFORMER "Sam Rivers"
INDEX 00 04:12:38
FILE "03 - Hues of Melanin (Violet).wav" WAVE
INDEX 01 00:00:00
TRACK 04 AUDIO
TITLE "Suite for Molde- Part One"
PERFORMER "Sam Rivers"
INDEX 00 05:39:55
FILE "04 - Suite for Molde- Part One.wav" WAVE
INDEX 01 00:00:00
TRACK 05 AUDIO
TITLE "Suite for Molde- Part Two"
PERFORMER "Sam Rivers"
INDEX 00 08:01:62
FILE "05 - Suite for Molde- Part Two.wav" WAVE
INDEX 01 00:00:00
 
Отчет CUETools
[CUETools log; Date: 12.04.2013 17:32:03; Version: 2.1.4]
Pregap length 00:00:32.
[CTDB TOCID: ZJNOKocxh5lim_Qb_Z2L6upQQUI-] disk not present in database.
[AccurateRip ID: 000ff5d0-0044ce7d-2f0ee005] disk not present in database.
Track Peak [ CRC32 ] [W/O NULL] [ LOG ]
-- 97,5 [FD33BD1B] [3AB62091]
01 97,5 [E57BC513] [C293D385] CRC32
02 91,6 [10B65C64] [A524A066] CRC32
03 95,3 [A702F925] [725352E8] CRC32
04 96,4 [8AE85386] [09DBB011] CRC32
05 95,1 [A2E3D2BE] [B9949A0B] CRC32
 
Review by Scott Yanow
The music on this 1998 CD reissue was originally scattered over several releases until it was finally grouped together in 1978 for the double LP The Live Trio Sessions (along with another eight minutes of related material not brought back here). The bulk of the music ("Hues of Melanin") is from a November 10, 1973 Yale University concert that features Rivers with both Cecil McBee and Lewis Worrell on bass along with drummer Barry Altschul. The continuous free improvisation has Rivers stretching out with great length on soprano, flute (complete with very odd vocal sounds), piano, and then (during the final five-and-a-half minutes of the 44-minute performance) tenor. It is a pity that Rivers chose to feature his main ax so sparingly, for this piece would have been much stronger if he had played tenor for 35 minutes rather than just five. The latter part of the CD is from a Norway concert on August 3, 1973 ("Suite for Molde"), with Arild Andersen taking McBee's place. Rivers plays soprano and flute for eight minutes and then tenor for 11 minutes; the latter section is the strongest of the entire disc. Sam Rivers' longtime fans may think of this collection as bordering on the classic, and there are certainly some emotional moments, but Rivers has sounded more consistent elsewhere.
Взамен ушедшей в архив.
Any questions -> support@pro-jazz.com. По всем вопросам пишите -> support@pro-jazz.com
11:00
176
Нет комментариев. Ваш будет первым!