Вы используете незарегистрированную версию компонента "Вкладки"!

Поиск

(Avant-Garde Jazz) Sam Rivers, Doug Mathews, Anthony Cole, Jonathan Powell, David Manson - Fluid Motion - 2002, FLAC (tracks+.cue), lossless

(Avant-Garde Jazz) Sam Rivers, Doug Mathews, Anthony Cole, Jonathan Powell, David Manson - Fluid Motion - 2002, FLAC (tracks+.cue), lossless
Треклист:
Sam Rivers, Doug Mathews, Anthony Cole, Jonathan Powell, David Manson - Fluid Motion
Жанр: Avant-Garde Jazz
Год издания: 2002
Издатель (лейбл): Isospin Labs
Номер по каталогу: ISO-42058
Страна: США
Аудиокодек: FLAC (*.flac)
Тип рипа: tracks+.cue
Битрейт аудио: lossless
Продолжительность: 50:25
Источник (релизер): o0ngawa (what)
Наличие сканов в содержимом раздачи: нет
Треклист:
01. Fluid Motion - 7:08
02. Poodle Science - 4:53
03. Tephlon - 6:13
04. Whispers - 6:49
05. Pengquan - 7:29
06. Crossdrift - 7:09
07. Following - 5:15
08. Tangents - 5:29
Состав:
Sam Rivers - tenor saxophone, soprano saxophone
Jonathan Powell - trumpet
David Manson - trombone
Doug Matthews - bass
Anthony Cole - drums
Recorded at Springs Theater, Tampa, FL on January 3, 2002.
 
Лог создания рипа
Exact Audio Copy V1.0 beta 3 from 29. August 2011
EAC extraction logfile from 23. December 2012, 20:46
Rivers, Sam / Fluid Motion
Used drive : LITE-ON DVDRW LH-20A1L Adapter: 4 ID: 0
Read mode : Secure
Utilize accurate stream : Yes
Defeat audio cache : Yes
Make use of C2 pointers : No
Read offset correction : 6
Overread into Lead-In and Lead-Out : No
Fill up missing offset samples with silence : Yes
Delete leading and trailing silent blocks : No
Null samples used in CRC calculations : Yes
Used interface : Native Win32 interface for Win NT & 2000
Gap handling : Appended to previous track
Used output format : User Defined Encoder
Selected bitrate : 1024 kBit/s
Quality : High
Add ID3 tag : No
Command line compressor : C:\Program Files (x86)\Exact Audio Copy\FLAC\FLAC.EXE
Additional command line options : -6 -V -T "ARTIST=%artist%" -T "TITLE=%title%" -T "ALBUM=%albumtitle%" -T "DATE=%year%" -T "TRACKNUMBER=%tracknr%" -T "GENRE=%genre%" -T "COMMENT=%comment%" -T "BAND=%albuminterpret%" -T "ALBUMARTIST=%albuminterpret%" -T "COMPOSER=%composer%" %haslyrics%--tag-from-file=LYRICS="%lyricsfile%"%haslyrics% -T "DISCNUMBER=%cdnumber%" -T "TOTALDISCS=%totalcds%" -T "TOTALTRACKS=%numtracks%" %hascover%--picture="%coverfile%"%hascover% %source% -o %dest%
TOC of the extracted CD
Track | Start | Length | Start sector | End sector
---------------------------------------------------------
1 | 0:00.00 | 7:07.42 | 0 | 32066
2 | 7:07.42 | 4:53.33 | 32067 | 54074
3 | 12:01.00 | 6:13.32 | 54075 | 82081
4 | 18:14.32 | 6:48.50 | 82082 | 112731
5 | 25:03.07 | 7:29.00 | 112732 | 146406
6 | 32:32.07 | 7:09.10 | 146407 | 178591
7 | 39:41.17 | 5:14.53 | 178592 | 202194
8 | 44:55.70 | 5:28.48 | 202195 | 226842
Track 1
Filename C:\EAC rips\Sam Rivers - Fluid Motion (2002) [FLAC]\01 - Fluid Motion.wav
Pre-gap length 0:00:02.00
Peak level 98.8 %
Extraction speed 2.1 X
Track quality 100.0 %
Test CRC 3AE4BEFB
Copy CRC 3AE4BEFB
Track not present in AccurateRip database
Copy OK
Track 2
Filename C:\EAC rips\Sam Rivers - Fluid Motion (2002) [FLAC]\02 - Poodle Science.wav
Peak level 98.8 %
Extraction speed 2.1 X
Track quality 99.9 %
Test CRC B02F404E
Copy CRC B02F404E
Track not present in AccurateRip database
Copy OK
Track 3
Filename C:\EAC rips\Sam Rivers - Fluid Motion (2002) [FLAC]\03 - Tephlon.wav
Pre-gap length 0:00:02.00
Peak level 98.8 %
Extraction speed 2.7 X
Track quality 100.0 %
Test CRC 1E65B971
Copy CRC 1E65B971
Track not present in AccurateRip database
Copy OK
Track 4
Filename C:\EAC rips\Sam Rivers - Fluid Motion (2002) [FLAC]\04 - Whispers.wav
Pre-gap length 0:00:01.00
Peak level 97.2 %
Extraction speed 2.6 X
Track quality 99.9 %
Test CRC 122B442F
Copy CRC 122B442F
Track not present in AccurateRip database
Copy OK
Track 5
Filename C:\EAC rips\Sam Rivers - Fluid Motion (2002) [FLAC]\05 - Pengquam.wav
Peak level 98.8 %
Extraction speed 3.2 X
Track quality 100.0 %
Test CRC CD3E7CB3
Copy CRC CD3E7CB3
Track not present in AccurateRip database
Copy OK
Track 6
Filename C:\EAC rips\Sam Rivers - Fluid Motion (2002) [FLAC]\06 - Crossdrift.wav
Pre-gap length 0:00:01.00
Peak level 98.8 %
Extraction speed 3.5 X
Track quality 100.0 %
Test CRC 2EFC92B6
Copy CRC 2EFC92B6
Track not present in AccurateRip database
Copy OK
Track 7
Filename C:\EAC rips\Sam Rivers - Fluid Motion (2002) [FLAC]\07 - Following.wav
Pre-gap length 0:00:00.74
Peak level 98.8 %
Extraction speed 2.9 X
Track quality 99.9 %
Test CRC 7036FF14
Copy CRC 7036FF14
Track not present in AccurateRip database
Copy OK
Track 8
Filename C:\EAC rips\Sam Rivers - Fluid Motion (2002) [FLAC]\08 - Tangents.wav
Peak level 98.8 %
Extraction speed 3.7 X
Track quality 100.0 %
Test CRC BE188227
Copy CRC BE188227
Track not present in AccurateRip database
Copy OK
None of the tracks are present in the AccurateRip database
No errors occurred
End of status report
---- CUETools DB Plugin V2.1.4
[CTDB TOCID: qPHr8WLfUWCC.mg2vK7xPN9jllU-] disk not present in database
Submit result: qPHr8WLfUWCC.mg2vK7xPN9jllU- has been uploaded
==== Log checksum E074E737A3F108B4F3B7747DF0C22B16F9CB07A79A41019475AAA53D92C433DD ====
 
Содержание индексной карты (.CUE)
REM GENRE Jazz
REM DATE 2002
REM DISCID 730BD008
REM COMMENT "ExactAudioCopy v1.0b3"
PERFORMER "Sam Rivers"
TITLE "Fluid Motion"
FILE "01 - Fluid Motion.wav" WAVE
TRACK 01 AUDIO
TITLE "Fluid Motion"
PERFORMER "Sam Rivers"
INDEX 01 00:00:00
FILE "02 - Poodle Science.wav" WAVE
TRACK 02 AUDIO
TITLE "Poodle Science"
PERFORMER "Sam Rivers"
INDEX 01 00:00:00
TRACK 03 AUDIO
TITLE "Tephlon"
PERFORMER "Sam Rivers"
INDEX 00 04:51:33
FILE "03 - Tephlon.wav" WAVE
INDEX 01 00:00:00
TRACK 04 AUDIO
TITLE "Whispers"
PERFORMER "Sam Rivers"
INDEX 00 06:12:32
FILE "04 - Whispers.wav" WAVE
INDEX 01 00:00:00
FILE "05 - Pengquan.wav" WAVE
TRACK 05 AUDIO
TITLE "Pengquan"
PERFORMER "Sam Rivers"
INDEX 01 00:00:00
TRACK 06 AUDIO
TITLE "Crossdrift"
PERFORMER "Sam Rivers"
INDEX 00 07:28:00
FILE "06 - Crossdrift.wav" WAVE
INDEX 01 00:00:00
TRACK 07 AUDIO
TITLE "Following"
PERFORMER "Sam Rivers"
INDEX 00 07:08:11
FILE "07 - Following.wav" WAVE
INDEX 01 00:00:00
FILE "08 - Tangents.wav" WAVE
TRACK 08 AUDIO
TITLE "Tangents"
PERFORMER "Sam Rivers"
INDEX 01 00:00:00
 
Отчет CUETools
[CUETools log; Date: 12.04.2013 17:11:24; Version: 2.1.4]
[CTDB TOCID: qPHr8WLfUWCC.mg2vK7xPN9jllU-] found.
Track | CTDB Status
1 | (1/1) Accurately ripped
2 | (1/1) Accurately ripped
3 | (1/1) Accurately ripped
4 | (1/1) Accurately ripped
5 | (1/1) Accurately ripped
6 | (1/1) Accurately ripped
7 | (1/1) Accurately ripped
8 | (1/1) Accurately ripped
[AccurateRip ID: 000fcaf1-006960e1-730bd008] disk not present in database.
Track Peak [ CRC32 ] [W/O NULL] [ LOG ]
-- 98,8 [A51D9223] [2C24EA22]
01 98,8 [3AE4BEFB] [4006F382] CRC32
02 98,8 [B02F404E] [70671FFF] CRC32
03 98,8 [1E65B971] [022D8C87] CRC32
04 97,2 [122B442F] [CE698DD3] CRC32
05 98,8 [CD3E7CB3] [5B0B8860] CRC32
06 98,8 [2EFC92B6] [43708FE3] CRC32
07 98,8 [7036FF14] [F30C4988] CRC32
08 98,8 [BE188227] [78560158] CRC32
 
Review by Glenn Astarita
Trombonist David Manson has fashioned an extraordinary array of compositions for this quintet, featuring the great saxophonist Sam Rivers. Recorded at the Springs Theatre in Tampa, Florida, this band conveys an idiosyncratic approach. The opener “Fluid Motion,” commences with Doug Mathews’ bass solo followed by the three soloists’ sinuously executed choruses, awash with curved angles and zesty accents. It becomes rapidly discernible that this band packs a punch amid shifting rhythms that develop with the vitality of an unexpected windstorm. Drummer Anthony Cole and Mathews’ loose, polyrhythmic patterns support the hornists’ feisty exchanges atop modern bop like themes. Mathews’ booming walking bass lines on “Poodle Science” provides the band with a well-defined center of gravity. While Cole weaves in and out with a smack, crackle and pop approach. Rivers, Manson and trumpeter Jonathan Powell interact with fervor and resolve, whether performing complex arrangements or working thru a whispery ballad. At times, the band purveys a 60s style “Blue Note Records,” sound! But, the thrust of this outing is founded upon bouncy rhythmic structures to coincide with the artists’ expressive unison choruses. They delve into the free zone on “Crossdrift” – where Powell’s corpulent tone and lyrically charged soloing supplements a few jagged, bop motifs. Here and throughout, the musicians’ outwardly, magnetic camaraderie provides much of the magic. Consequently, the title Fluid Motion, denotes just one of the many notable attributes witnessed on this incontestably superb effort! (Zealously recommended...)
Any questions -> support@pro-jazz.com. По всем вопросам пишите -> support@pro-jazz.com
10:59
182
Нет комментариев. Ваш будет первым!