Поиск

(ethno-jazz, post-bop , real world records) Samuel Yirga - Guzo (2012), FLAC (tracks+.cue), lossless

Треклист:


Samuel Yirga - Guzo (2012)

Жанр: ethno-jazz, post-bop , real world records
Год выпуска: 2012
Издатель (лейбл): real world records
Формат: FLAC (tracks+.cue)
Битрейт аудио: lossless
Продолжительность 1`03`10
Источник: what.cd

tracks

Abet Abet (Punt mix)
Tiwista (Tinish mix)
Firma Ena Wereket
Yeh Bati Koyita
Nou Se Soleil
I Am the Black Gold of the Sun
Dance With the Legend
My Head
Drop Me There
The Blues of Wollo (Dessye mix)
African Diaspora


 
.log
Exact Audio Copy V1.0 beta 2 from 29. April 2011
EAC extraction logfile from 25. October 2012, 16:08
Samuel Yirga / Guzo
Used drive : SONY DVD RW DW-U18A Adapter: 0 ID: 0
Read mode : Secure
Utilize accurate stream : Yes
Defeat audio cache : Yes
Make use of C2 pointers : No
Read offset correction : 12
Overread into Lead-In and Lead-Out : No
Fill up missing offset samples with silence : Yes
Delete leading and trailing silent blocks : No
Null samples used in CRC calculations : Yes
Used interface : Native Win32 interface for Win NT & 2000
Gap handling : Appended to previous track
Used output format : User Defined Encoder
Selected bitrate : 1024 kBit/s
Quality : High
Add ID3 tag : No
Command line compressor : C:\Program Files\FLAC\flac.exe
Additional command line options : -8 -V -T "ARTIST=%artist%" -T "TITLE=%title%" -T "ALBUM=%albumtitle%" -T "DATE=%year%" -T "TRACKNUMBER=%tracknr%" -T "GENRE=%genre%" -T "PERFORMER=%albuminterpret%" -T "COMPOSER=%composer%" %haslyrics%--tag-from-file=LYRICS
TOC of the extracted CD
Track | Start | Length | Start sector | End sector
---------------------------------------------------------
1 | 0:00.00 | 5:13.04 | 0 | 23478
2 | 5:13.04 | 5:57.30 | 23479 | 50283
3 | 11:10.34 | 6:58.65 | 50284 | 81698
4 | 18:09.24 | 8:27.39 | 81699 | 119762
5 | 26:36.63 | 0:56.15 | 119763 | 123977
6 | 27:33.03 | 5:26.63 | 123978 | 148490
7 | 32:59.66 | 4:26.69 | 148491 | 168509
8 | 37:26.60 | 5:45.57 | 168510 | 194441
9 | 43:12.42 | 8:29.25 | 194442 | 232641
10 | 51:41.67 | 4:44.48 | 232642 | 253989
11 | 56:26.40 | 6:43.59 | 253990 | 284273
Track 1
Filename C:\pastafari\Samuel Yirga - Guzo (2012) [FLAC]\01 - Abet Abet.wav
Pre-gap length 0:00:02.00
Peak level 100.0 %
Extraction speed 3.9 X
Track quality 99.9 %
Test CRC FC3BC595
Copy CRC FC3BC595
Track not present in AccurateRip database
Copy OK
Track 2
Filename C:\pastafari\Samuel Yirga - Guzo (2012) [FLAC]\02 - Tiwista.wav
Peak level 100.0 %
Extraction speed 4.7 X
Track quality 100.0 %
Test CRC F9274D8F
Copy CRC F9274D8F
Track not present in AccurateRip database
Copy OK
Track 3
Filename C:\pastafari\Samuel Yirga - Guzo (2012) [FLAC]\03 - Firma Ena Wereket.wav
Peak level 100.0 %
Extraction speed 5.2 X
Track quality 100.0 %
Test CRC 093CD838
Copy CRC 093CD838
Track not present in AccurateRip database
Copy OK
Track 4
Filename C:\pastafari\Samuel Yirga - Guzo (2012) [FLAC]\04 - Yeh Bati Koyita.wav
Peak level 99.3 %
Extraction speed 5.8 X
Track quality 100.0 %
Test CRC D3713B38
Copy CRC D3713B38
Track not present in AccurateRip database
Copy OK
Track 5
Filename C:\pastafari\Samuel Yirga - Guzo (2012) [FLAC]\05 - Nou Se Soleil.wav
Peak level 98.8 %
Extraction speed 5.2 X
Track quality 100.0 %
Test CRC 52AAC7D1
Copy CRC 52AAC7D1
Track not present in AccurateRip database
Copy OK
Track 6
Filename C:\pastafari\Samuel Yirga - Guzo (2012) [FLAC]\06 - I am the Black Gold of the Sun.wav
Peak level 100.0 %
Extraction speed 6.3 X
Track quality 100.0 %
Test CRC 4F2487F7
Copy CRC 4F2487F7
Track not present in AccurateRip database
Copy OK
Track 7
Filename C:\pastafari\Samuel Yirga - Guzo (2012) [FLAC]\07 - Dance with the Legend.wav
Peak level 99.4 %
Extraction speed 6.1 X
Track quality 99.9 %
Test CRC 996FECCD
Copy CRC 996FECCD
Track not present in AccurateRip database
Copy OK
Track 8
Filename C:\pastafari\Samuel Yirga - Guzo (2012) [FLAC]\08 - My Head.wav
Peak level 100.0 %
Extraction speed 6.7 X
Track quality 100.0 %
Test CRC 54921707
Copy CRC 54921707
Track not present in AccurateRip database
Copy OK
Track 9
Filename C:\pastafari\Samuel Yirga - Guzo (2012) [FLAC]\09 - Drop Me There.wav
Peak level 100.0 %
Extraction speed 7.3 X
Track quality 100.0 %
Test CRC 5FAB6014
Copy CRC 5FAB6014
Track not present in AccurateRip database
Copy OK
Track 10
Filename C:\pastafari\Samuel Yirga - Guzo (2012) [FLAC]\10 - The Blues of Wollo.wav
Peak level 100.0 %
Extraction speed 7.4 X
Track quality 100.0 %
Test CRC DEA680A8
Copy CRC DEA680A8
Track not present in AccurateRip database
Copy OK
Track 11
Filename C:\pastafari\Samuel Yirga - Guzo (2012) [FLAC]\11 - African Diaspora.wav
Peak level 100.0 %
Extraction speed 6.5 X
Track quality 100.0 %
Test CRC FB35564B
Copy CRC FB35564B
Track not present in AccurateRip database
Copy OK
None of the tracks are present in the AccurateRip database
No errors occurred
End of status report
==== Log checksum 393729D81230339B0FB27157868EE3CBBAF77F3E8C4BEA2CDE49A02577415EE3 ====
 
.cue
REM GENRE Jazz
REM DATE 2012
REM DISCID A10ECE0B
REM COMMENT "ExactAudioCopy v1.0b2"
CATALOG 01010015561?0
PERFORMER "Samuel Yirga"
TITLE "Guzo"
FILE "01 - Abet Abet.wav" WAVE
TRACK 01 AUDIO
TITLE "Abet Abet"
PERFORMER "Samuel Yirga"
ISRC 0@4055600001
INDEX 01 00:00:00
FILE "02 - Tiwista.wav" WAVE
TRACK 02 AUDIO
TITLE "Tiwista"
PERFORMER "Samuel Yirga"
ISRC 0@4055600001
INDEX 01 00:00:00
FILE "03 - Firma Ena Wereket.wav" WAVE
TRACK 03 AUDIO
TITLE "Firma Ena Wereket"
PERFORMER "Samuel Yirga"
ISRC 0@4055600001
INDEX 01 00:00:00
FILE "04 - Yeh Bati Koyita.wav" WAVE
TRACK 04 AUDIO
TITLE "Yeh Bati Koyita"
PERFORMER "Samuel Yirga"
ISRC 0@4055600001
INDEX 01 00:00:00
FILE "05 - Nou Se Soleil.wav" WAVE
TRACK 05 AUDIO
TITLE "Nou Se Soleil"
PERFORMER "Samuel Yirga"
ISRC 0@4055600001
INDEX 01 00:00:00
FILE "06 - I am the Black Gold of the Sun.wav" WAVE
TRACK 06 AUDIO
TITLE "I am the Black Gold of the Sun"
PERFORMER "Samuel Yirga"
ISRC 0@4055600001
INDEX 01 00:00:00
FILE "07 - Dance with the Legend.wav" WAVE
TRACK 07 AUDIO
TITLE "Dance with the Legend"
PERFORMER "Samuel Yirga"
ISRC 0@4055600001
INDEX 01 00:00:00
FILE "08 - My Head.wav" WAVE
TRACK 08 AUDIO
TITLE "My Head"
PERFORMER "Samuel Yirga"
ISRC 0@4055600001
INDEX 01 00:00:00
FILE "09 - Drop Me There.wav" WAVE
TRACK 09 AUDIO
TITLE "Drop Me There"
PERFORMER "Samuel Yirga"
ISRC 0@4055600001
INDEX 01 00:00:00
FILE "10 - The Blues of Wollo.wav" WAVE
TRACK 10 AUDIO
TITLE "The Blues of Wollo"
PERFORMER "Samuel Yirga"
ISRC 0@4055600001
INDEX 01 00:00:00
FILE "11 - African Diaspora.wav" WAVE
TRACK 11 AUDIO
TITLE "African Diaspora"
PERFORMER "Samuel Yirga"
ISRC 0@4055600001
INDEX 01 00:00:00

другие релизы
05:03
321
Нет комментариев. Ваш будет первым!